<?xml version="1.0" standalone="no"?>
<!DOCTYPE svg PUBLIC "-//W3C//DTD SVG 1.1//EN" "http://www.w3.org/Graphics/SVG/1.1/DTD/svg11.dtd" >
<svg xmlns="http://www.w3.org/2000/svg" xmlns:xlink="http://www.w3.org/1999/xlink" version="1.1">
<metadata>
Created by FontForge 20190801 at Wed Apr  1 15:10:26 2020
 By Unknown
Copyright 2006 The Inconsolata Project Authors (https://github.com/cyrealtype/Inconsolata)
</metadata>
<defs>
<font id="Inconsolata-Bold" horiz-adv-x="500" >
  <font-face 
    font-family="Inconsolata"
    font-weight="700"
    font-stretch="normal"
    units-per-em="1000"
    panose-1="0 0 5 9 0 0 0 0 0 0"
    ascent="800"
    descent="-200"
    x-height="465"
    cap-height="623"
    bbox="-80 -400 1455 1000"
    underline-thickness="50"
    underline-position="-225"
    unicode-range="U+000D-FFFD"
  />
<missing-glyph 
 />
    <glyph glyph-name=".notdef" 
 />
    <glyph glyph-name="A" unicode="A" 
d="M367 145h-244l16 81h209zM250 418l-126 -418h-112l211 627h54l211 -627h-114z" />
    <glyph glyph-name="Aacute" unicode="&#xc1;" 
d="M367 145h-244l16 81h209zM250 418l-126 -418h-112l211 627h54l211 -627h-114zM175 653l-28 54l163 95l44 -85z" />
    <glyph glyph-name="Abreve" unicode="&#x102;" 
d="M367 145h-244l16 81h209zM250 418l-126 -418h-112l211 627h54l211 -627h-114zM332 802l70 -32q-24 -51 -62.5 -78.5t-88.5 -27.5t-88.5 27.5t-62.5 78.5l70 32q16 -36 35 -54t46 -18q18 0 33 7.5t27 24t21 40.5z" />
    <glyph glyph-name="uni1EAE" unicode="&#x1eae;" 
d="M367 145h-244l16 81h209zM250 418l-126 -418h-112l211 627h54l211 -627h-114zM332 802l70 -32q-24 -51 -62.5 -78.5t-88.5 -27.5t-88.5 27.5t-62.5 78.5l70 32q16 -36 35 -54t46 -18q18 0 33 7.5t27 24t21 40.5zM204 790l-28 54l163 95l44 -85z" />
    <glyph glyph-name="uni1EB6" unicode="&#x1eb6;" 
d="M367 145h-244l16 81h209zM250 418l-126 -418h-112l211 627h54l211 -627h-114zM248 -170q-29 0 -50 20t-21 48q0 30 20 49t51 19q28 0 49.5 -20t21.5 -48t-21.5 -48t-49.5 -20zM332 802l70 -32q-24 -51 -62.5 -78.5t-88.5 -27.5t-88.5 27.5t-62.5 78.5l70 32
q16 -36 35 -54t46 -18q18 0 33 7.5t27 24t21 40.5z" />
    <glyph glyph-name="uni1EB0" unicode="&#x1eb0;" 
d="M367 145h-244l16 81h209zM250 418l-126 -418h-112l211 627h54l211 -627h-114zM332 802l70 -32q-24 -51 -62.5 -78.5t-88.5 -27.5t-88.5 27.5t-62.5 78.5l70 32q16 -36 35 -54t46 -18q18 0 33 7.5t27 24t21 40.5zM283 813l-180 63l47 86l162 -96z" />
    <glyph glyph-name="uni1EB2" unicode="&#x1eb2;" 
d="M367 145h-244l16 81h209zM250 418l-126 -418h-112l211 627h54l211 -627h-114zM332 802l70 -32q-24 -51 -62.5 -78.5t-88.5 -27.5t-88.5 27.5t-62.5 78.5l70 32q16 -36 35 -54t46 -18q18 0 33 7.5t27 24t21 40.5zM352 895q0 -21 -10 -36t-23.5 -26.5t-24 -23.5t-10.5 -28
v-8h-70v28q0 16 9.5 28t22 22t22 20t9.5 19q0 14 -9 21.5t-23 7.5q-19 0 -33 -7.5t-23 -29.5l-41 54q19 24 47 35t55 11q31 -1 54 -12t35.5 -30t12.5 -45z" />
    <glyph glyph-name="uni1EB4" unicode="&#x1eb4;" 
d="M367 145h-244l16 81h209zM250 418l-126 -418h-112l211 627h54l211 -627h-114zM332 802l70 -32q-24 -51 -62.5 -78.5t-88.5 -27.5t-88.5 27.5t-62.5 78.5l70 32q16 -36 35 -54t46 -18q18 0 33 7.5t27 24t21 40.5zM321 946l57 -26q-18 -41 -40.5 -59t-48.5 -18
q-21 0 -36.5 8t-28 18.5t-23 18.5t-22.5 8q-13 0 -23.5 -10.5t-17.5 -28.5l-57 26q14 36 39.5 57t50.5 21q20 0 36.5 -8t30.5 -19t25 -19t21 -8q11 0 19.5 8.5t17.5 30.5z" />
    <glyph glyph-name="Acircumflex" unicode="&#xc2;" 
d="M367 145h-244l16 81h209zM250 418l-126 -418h-112l211 627h54l211 -627h-114zM110 649l-36 55l161 96h31l158 -94l-38 -57l-135 66z" />
    <glyph glyph-name="uni1EA4" unicode="&#x1ea4;" 
d="M367 145h-244l16 81h209zM250 418l-126 -418h-112l211 627h54l211 -627h-114zM108 649l-36 55l161 96h31l158 -94l-38 -57l-135 66zM373 767l-28 54l163 95l44 -85z" />
    <glyph glyph-name="uni1EAC" unicode="&#x1eac;" 
d="M367 145h-244l16 81h209zM250 418l-126 -418h-112l211 627h54l211 -627h-114zM248 -170q-29 0 -50 20t-21 48q0 30 20 49t51 19q28 0 49.5 -20t21.5 -48t-21.5 -48t-49.5 -20zM110 649l-36 55l161 96h31l158 -94l-38 -57l-135 66z" />
    <glyph glyph-name="uni1EA6" unicode="&#x1ea6;" 
d="M367 145h-244l16 81h209zM250 418l-126 -418h-112l211 627h54l211 -627h-114zM112 649l-36 55l161 96h31l158 -94l-38 -57l-135 66zM345 806l-180 63l47 86l162 -96z" />
    <glyph glyph-name="uni1EA8" unicode="&#x1ea8;" 
d="M367 145h-244l16 81h209zM250 418l-126 -418h-112l211 627h54l211 -627h-114zM108 649l-36 55l161 96h31l158 -94l-38 -57l-135 66zM495 874q0 -21 -10 -36t-23.5 -26.5t-24 -23.5t-10.5 -28v-8h-70v28q0 16 9.5 28t22 22t22 20t9.5 19q0 14 -9 21.5t-23 7.5
q-19 0 -33 -7.5t-23 -29.5l-41 54q19 24 47 35t55 11q31 -1 54 -12t35.5 -30t12.5 -45z" />
    <glyph glyph-name="uni1EAA" unicode="&#x1eaa;" 
d="M367 145h-244l16 81h209zM250 418l-126 -418h-112l211 627h54l211 -627h-114zM109 649l-36 55l161 96h31l158 -94l-38 -57l-135 66zM328 931l57 -26q-18 -41 -40.5 -59t-48.5 -18q-21 0 -36.5 8t-28 18.5t-23 18.5t-22.5 8q-13 0 -23.5 -10.5t-17.5 -28.5l-57 26
q14 36 39.5 57t50.5 21q20 0 36.5 -8t30.5 -19t25 -19t21 -8q11 0 19.5 8.5t17.5 30.5z" />
    <glyph glyph-name="uni0200" unicode="&#x200;" 
d="M367 145h-244l16 81h209zM250 418l-126 -418h-112l211 627h54l211 -627h-114zM186 664l-110 142l79 57l83 -166zM346 664l-110 142l79 57l83 -166z" />
    <glyph glyph-name="Adieresis" unicode="&#xc4;" 
d="M367 145h-244l16 81h209zM250 418l-126 -418h-112l211 627h54l211 -627h-114zM157 683q-27 0 -47 19t-20 45t20 45.5t47 19.5q30 0 49 -20t19 -45q0 -26 -20 -45t-48 -19zM341 683q-27 0 -46.5 18.5t-19.5 45.5t19.5 46t46.5 19q31 0 49 -20.5t18 -44.5q0 -26 -19.5 -45
t-47.5 -19z" />
    <glyph glyph-name="uni1EA0" unicode="&#x1ea0;" 
d="M367 145h-244l16 81h209zM250 418l-126 -418h-112l211 627h54l211 -627h-114zM248 -170q-29 0 -50 20t-21 48q0 30 20 49t51 19q28 0 49.5 -20t21.5 -48t-21.5 -48t-49.5 -20z" />
    <glyph glyph-name="Agrave" unicode="&#xc0;" 
d="M367 145h-244l16 81h209zM250 418l-126 -418h-112l211 627h54l211 -627h-114zM313 654l-180 63l47 86l162 -96z" />
    <glyph glyph-name="uni1EA2" unicode="&#x1ea2;" 
d="M367 145h-244l16 81h209zM250 418l-126 -418h-112l211 627h54l211 -627h-114zM363 801q0 -21 -10 -36t-23.5 -26.5t-24 -23.5t-10.5 -28v-8h-70v28q0 16 9.5 28t22 22t22 20t9.5 19q0 14 -9 21.5t-23 7.5q-19 0 -33 -7.5t-23 -29.5l-41 54q19 24 47 35t55 11
q31 -1 54 -12t35.5 -30t12.5 -45z" />
    <glyph glyph-name="uni0202" unicode="&#x202;" 
d="M367 145h-244l16 81h209zM250 418l-126 -418h-112l211 627h54l211 -627h-114zM171 680l-70 32q24 51 62.5 78.5t88.5 27.5t88.5 -27.5t62.5 -78.5l-70 -32q-16 36 -35 54t-46 18q-18 0 -33 -7.5t-27 -23.5t-21 -41z" />
    <glyph glyph-name="Amacron" unicode="&#x100;" 
d="M367 145h-244l16 81h209zM250 418l-126 -418h-112l211 627h54l211 -627h-114zM110 724v76h280v-76h-280z" />
    <glyph glyph-name="Aogonek" unicode="&#x104;" 
d="M367 145h-244l16 81h209zM250 418l-126 -418h-112l211 627h54l211 -627h-114zM458 -150l-45 -88q-45 12 -74 29t-43.5 38.5t-14.5 44.5q0 25 16 51.5t46.5 52.5t75.5 49l40 -27q-21 -18 -36.5 -35.5t-23.5 -32.5t-8 -28q0 -19 17 -32.5t50 -21.5z" />
    <glyph glyph-name="Aring" unicode="&#xc5;" 
d="M367 145h-244l16 81h209zM250 418l-126 -418h-112l211 627h54l211 -627h-114zM248 616q-28 0 -52 13.5t-38 36.5t-14 50t14.5 49.5t38 36t51.5 13.5q29 0 52.5 -13.5t38 -36t14.5 -49.5t-14.5 -50t-38 -36.5t-52.5 -13.5zM249 680q13 0 22.5 10.5t9.5 26.5t-9.5 27
t-22.5 11q-14 0 -23.5 -11t-9.5 -27t10 -26.5t23 -10.5z" />
    <glyph glyph-name="Aringacute" unicode="&#x1fa;" 
d="M367 145h-244l16 81h209zM250 418l-126 -418h-112l211 627h54l211 -627h-114zM248 616q-28 0 -52 13.5t-38 36.5t-14 50t14.5 49.5t38 36t51.5 13.5q29 0 52.5 -13.5t38 -36t14.5 -49.5t-14.5 -50t-38 -36.5t-52.5 -13.5zM249 680q13 0 22.5 10.5t9.5 26.5t-9.5 27
t-22.5 11q-14 0 -23.5 -11t-9.5 -27t10 -26.5t23 -10.5zM175 837l-28 54l163 95l44 -85z" />
    <glyph glyph-name="Atilde" unicode="&#xc3;" 
d="M367 145h-244l16 81h209zM250 418l-126 -418h-112l211 627h54l211 -627h-114zM362 788l60 -31q-20 -43 -44 -61.5t-54 -18.5q-29 0 -48 9.5t-33 22t-25.5 21.5t-25.5 9q-17 0 -29.5 -12.5t-23.5 -36.5l-62 29q17 43 44 65t67 22q26 0 44 -9t31.5 -21t26 -21t27.5 -9
q17 0 26 10.5t19 31.5z" />
    <glyph glyph-name="AE" unicode="&#xc6;" 
d="M0 0l192 623h306v-91h-157v-162h132v-91h-132v-188h155v-91h-259v159h-85l-44 -159h-108zM173 251h65l6 251h-2z" />
    <glyph glyph-name="AEacute" unicode="&#x1fc;" 
d="M0 0l192 623h306v-91h-157v-162h132v-91h-132v-188h155v-91h-259v159h-85l-44 -159h-108zM173 251h65l6 251h-2zM194 653l-28 54l163 95l44 -85z" />
    <glyph glyph-name="B" unicode="B" 
d="M37 0v623h190q56 0 97 -11.5t68.5 -32t41 -49.5t13.5 -64q0 -26 -10 -53t-30 -48.5t-48 -33.5q25 -11 46 -27t36 -35.5t22.5 -42t7.5 -46.5q0 -40 -15 -73.5t-45.5 -57t-76.5 -36.5t-108 -13h-189zM150 93h88q36 0 62 10.5t40 30.5t14 49q0 30 -13 52.5t-42 35.5t-78 13
h-71v-191zM150 374h68q44 0 69 10.5t35.5 29t10.5 42.5q0 17 -6 31t-18.5 23.5t-32.5 15.5t-48 6h-78v-158z" />
    <glyph glyph-name="C" unicode="C" 
d="M279 -11q-51 0 -96 18.5t-79.5 57.5t-53.5 99.5t-19 143.5q0 73 15 128t40.5 92.5t58 60.5t68 33t70.5 10q71 0 120.5 -32t76.5 -90l-71 -53l-8 -5l-5 8q1 8 -1.5 15t-10.5 21q-22 27 -45.5 36t-49.5 9q-29 0 -55 -14.5t-47 -43.5t-32.5 -71.5t-11.5 -98.5
q0 -54 10.5 -96.5t29 -72.5t44 -46t55.5 -16q24 0 44.5 7t37.5 22t31 40l78 -58q-35 -56 -82 -80t-112 -24v0z" />
    <glyph glyph-name="Cacute" unicode="&#x106;" 
d="M279 -11q-51 0 -96 18.5t-79.5 57.5t-53.5 99.5t-19 143.5q0 73 15 128t40.5 92.5t58 60.5t68 33t70.5 10q71 0 120.5 -32t76.5 -90l-71 -53l-8 -5l-5 8q1 8 -1.5 15t-10.5 21q-22 27 -45.5 36t-49.5 9q-29 0 -55 -14.5t-47 -43.5t-32.5 -71.5t-11.5 -98.5
q0 -54 10.5 -96.5t29 -72.5t44 -46t55.5 -16q24 0 44.5 7t37.5 22t31 40l78 -58q-35 -56 -82 -80t-112 -24v0zM194 653l-28 54l163 95l44 -85z" />
    <glyph glyph-name="Ccaron" unicode="&#x10c;" 
d="M279 -11q-51 0 -96 18.5t-79.5 57.5t-53.5 99.5t-19 143.5q0 73 15 128t40.5 92.5t58 60.5t68 33t70.5 10q71 0 120.5 -32t76.5 -90l-71 -53l-8 -5l-5 8q1 8 -1.5 15t-10.5 21q-22 27 -45.5 36t-49.5 9q-29 0 -55 -14.5t-47 -43.5t-32.5 -71.5t-11.5 -98.5
q0 -54 10.5 -96.5t29 -72.5t44 -46t55.5 -16q24 0 44.5 7t37.5 22t31 40l78 -58q-35 -56 -82 -80t-112 -24v0zM410 812l36 -55l-161 -96h-31l-158 94l38 57l135 -66z" />
    <glyph glyph-name="Ccedilla" unicode="&#xc7;" 
d="M279 -11q-51 0 -96 18.5t-79.5 57.5t-53.5 99.5t-19 143.5q0 73 15 128t40.5 92.5t58 60.5t68 33t70.5 10q71 0 120.5 -32t76.5 -90l-71 -53l-8 -5l-5 8q1 8 -1.5 15t-10.5 21q-22 27 -45.5 36t-49.5 9q-29 0 -55 -14.5t-47 -43.5t-32.5 -71.5t-11.5 -98.5
q0 -54 10.5 -96.5t29 -72.5t44 -46t55.5 -16q24 0 44.5 7t37.5 22t31 40l78 -58q-35 -56 -82 -80t-112 -24v0zM273 -205q-31 0 -61.5 8t-62.5 33l37 66q26 -22 50 -30.5t49 -8.5q18 0 32 7t14 19q0 11 -13 16.5t-34 5.5h-49l12 89h80l-4 -31q25 -2 42.5 -12.5t26.5 -25.5
t9 -33q0 -43 -34.5 -73t-93.5 -30z" />
    <glyph glyph-name="uni1E08" unicode="&#x1e08;" 
d="M279 -11q-51 0 -96 18.5t-79.5 57.5t-53.5 99.5t-19 143.5q0 73 15 128t40.5 92.5t58 60.5t68 33t70.5 10q71 0 120.5 -32t76.5 -90l-71 -53l-8 -5l-5 8q1 8 -1.5 15t-10.5 21q-22 27 -45.5 36t-49.5 9q-29 0 -55 -14.5t-47 -43.5t-32.5 -71.5t-11.5 -98.5
q0 -54 10.5 -96.5t29 -72.5t44 -46t55.5 -16q24 0 44.5 7t37.5 22t31 40l78 -58q-35 -56 -82 -80t-112 -24v0zM273 -205q-31 0 -61.5 8t-62.5 33l37 66q26 -22 50 -30.5t49 -8.5q18 0 32 7t14 19q0 11 -13 16.5t-34 5.5h-49l12 89h80l-4 -31q25 -2 42.5 -12.5t26.5 -25.5
t9 -33q0 -43 -34.5 -73t-93.5 -30zM194 653l-28 54l163 95l44 -85z" />
    <glyph glyph-name="Ccircumflex" unicode="&#x108;" 
d="M279 -11q-51 0 -96 18.5t-79.5 57.5t-53.5 99.5t-19 143.5q0 73 15 128t40.5 92.5t58 60.5t68 33t70.5 10q71 0 120.5 -32t76.5 -90l-71 -53l-8 -5l-5 8q1 8 -1.5 15t-10.5 21q-22 27 -45.5 36t-49.5 9q-29 0 -55 -14.5t-47 -43.5t-32.5 -71.5t-11.5 -98.5
q0 -54 10.5 -96.5t29 -72.5t44 -46t55.5 -16q24 0 44.5 7t37.5 22t31 40l78 -58q-35 -56 -82 -80t-112 -24v0zM130 649l-36 55l161 96h31l158 -94l-38 -57l-135 66z" />
    <glyph glyph-name="Cdotaccent" unicode="&#x10a;" 
d="M279 -11q-51 0 -96 18.5t-79.5 57.5t-53.5 99.5t-19 143.5q0 73 15 128t40.5 92.5t58 60.5t68 33t70.5 10q71 0 120.5 -32t76.5 -90l-71 -53l-8 -5l-5 8q1 8 -1.5 15t-10.5 21q-22 27 -45.5 36t-49.5 9q-29 0 -55 -14.5t-47 -43.5t-32.5 -71.5t-11.5 -98.5
q0 -54 10.5 -96.5t29 -72.5t44 -46t55.5 -16q24 0 44.5 7t37.5 22t31 40l78 -58q-35 -56 -82 -80t-112 -24v0zM271 682q-29 0 -50 20t-21 48q0 30 20 49t51 19q28 0 49.5 -20t21.5 -48t-21.5 -48t-49.5 -20z" />
    <glyph glyph-name="D" unicode="D" 
d="M42 0v623h161q55 0 92.5 -10t64 -29t47.5 -47t35.5 -63.5t22.5 -76.5t8 -90q-2 -71 -18.5 -127.5t-50 -96.5t-86.5 -61.5t-127 -21.5h-149zM152 88h36q64 0 102.5 27.5t55.5 76.5t16 114q0 69 -14.5 120t-50.5 79t-98 28h-47v-445z" />
    <glyph glyph-name="Eth" unicode="&#xd0;" 
d="M56 0v284h-40v90h40v249h157q46 0 82 -9t62.5 -24t46 -33.5t31.5 -38.5q15 -21 25.5 -53.5t16 -72t5.5 -85.5q0 -70 -16 -127.5t-49.5 -97t-86.5 -61t-129 -21.5h-145zM162 91h37q60 0 98 24.5t57 72t19 116.5q0 71 -16.5 120.5t-53 76t-94.5 26.5h-47v-153h93v-90h-93
v-193z" />
    <glyph glyph-name="Dcaron" unicode="&#x10e;" 
d="M42 0v623h161q55 0 92.5 -10t64 -29t47.5 -47t35.5 -63.5t22.5 -76.5t8 -90q-2 -71 -18.5 -127.5t-50 -96.5t-86.5 -61.5t-127 -21.5h-149zM152 88h36q64 0 102.5 27.5t55.5 76.5t16 114q0 69 -14.5 120t-50.5 79t-98 28h-47v-445zM360 812l36 -55l-161 -96h-31l-158 94
l38 57l135 -66z" />
    <glyph glyph-name="Dcroat" unicode="&#x110;" 
d="M56 0v284h-40v90h40v249h157q46 0 82 -9t62.5 -24t46 -33.5t31.5 -38.5q15 -21 25.5 -53.5t16 -72t5.5 -85.5q0 -70 -16 -127.5t-49.5 -97t-86.5 -61t-129 -21.5h-145zM162 91h37q60 0 98 24.5t57 72t19 116.5q0 71 -16.5 120.5t-53 76t-94.5 26.5h-47v-153h93v-90h-93
v-193z" />
    <glyph glyph-name="uni1E0C" unicode="&#x1e0c;" 
d="M42 0v623h161q55 0 92.5 -10t64 -29t47.5 -47t35.5 -63.5t22.5 -76.5t8 -90q-2 -71 -18.5 -127.5t-50 -96.5t-86.5 -61.5t-127 -21.5h-149zM152 88h36q64 0 102.5 27.5t55.5 76.5t16 114q0 69 -14.5 120t-50.5 79t-98 28h-47v-445zM242 -170q-29 0 -50 20t-21 48
q0 30 20 49t51 19q28 0 49.5 -20t21.5 -48t-21.5 -48t-49.5 -20z" />
    <glyph glyph-name="uni1E0E" unicode="&#x1e0e;" 
d="M42 0v623h161q55 0 92.5 -10t64 -29t47.5 -47t35.5 -63.5t22.5 -76.5t8 -90q-2 -71 -18.5 -127.5t-50 -96.5t-86.5 -61.5t-127 -21.5h-149zM152 88h36q64 0 102.5 27.5t55.5 76.5t16 114q0 69 -14.5 120t-50.5 79t-98 28h-47v-445zM104 -156v76h280v-76h-280z" />
    <glyph glyph-name="E" unicode="E" 
d="M51 0v623h406v-92h-296v-160h243v-93h-243v-186h293v-92h-403z" />
    <glyph glyph-name="Eacute" unicode="&#xc9;" 
d="M51 0v623h406v-92h-296v-160h243v-93h-243v-186h293v-92h-403zM190 653l-28 54l163 95l44 -85z" />
    <glyph glyph-name="Ebreve" unicode="&#x114;" 
d="M51 0v623h406v-92h-296v-160h243v-93h-243v-186h293v-92h-403zM347 802l70 -32q-24 -51 -62.5 -78.5t-88.5 -27.5t-88.5 27.5t-62.5 78.5l70 32q16 -36 35 -54t46 -18q18 0 33 7.5t27 24t21 40.5z" />
    <glyph glyph-name="Ecaron" unicode="&#x11a;" 
d="M51 0v623h406v-92h-296v-160h243v-93h-243v-186h293v-92h-403zM406 812l36 -55l-161 -96h-31l-158 94l38 57l135 -66z" />
    <glyph glyph-name="uni1E1C" unicode="&#x1e1c;" 
d="M51 0v623h406v-92h-296v-160h243v-93h-243v-186h293v-92h-403zM249 -205q-31 0 -61.5 8t-62.5 33l37 66q26 -22 50 -30.5t49 -8.5q18 0 32 7t14 19q0 11 -13 16.5t-34 5.5h-49l12 89h80l-4 -31q25 -2 42.5 -12.5t26.5 -25.5t9 -33q0 -43 -34.5 -73t-93.5 -30zM347 802
l70 -32q-24 -51 -62.5 -78.5t-88.5 -27.5t-88.5 27.5t-62.5 78.5l70 32q16 -36 35 -54t46 -18q18 0 33 7.5t27 24t21 40.5z" />
    <glyph glyph-name="Ecircumflex" unicode="&#xca;" 
d="M51 0v623h406v-92h-296v-160h243v-93h-243v-186h293v-92h-403zM125 649l-36 55l161 96h31l158 -94l-38 -57l-135 66z" />
    <glyph glyph-name="uni1EBE" unicode="&#x1ebe;" 
d="M51 0v623h406v-92h-296v-160h243v-93h-243v-186h293v-92h-403zM123 649l-36 55l161 96h31l158 -94l-38 -57l-135 66zM388 767l-28 54l163 95l44 -85z" />
    <glyph glyph-name="uni1EC6" unicode="&#x1ec6;" 
d="M51 0v623h406v-92h-296v-160h243v-93h-243v-186h293v-92h-403zM248 -170q-29 0 -50 20t-21 48q0 30 20 49t51 19q28 0 49.5 -20t21.5 -48t-21.5 -48t-49.5 -20zM125 649l-36 55l161 96h31l158 -94l-38 -57l-135 66z" />
    <glyph glyph-name="uni1EC0" unicode="&#x1ec0;" 
d="M51 0v623h406v-92h-296v-160h243v-93h-243v-186h293v-92h-403zM127 649l-36 55l161 96h31l158 -94l-38 -57l-135 66zM360 806l-180 63l47 86l162 -96z" />
    <glyph glyph-name="uni1EC2" unicode="&#x1ec2;" 
d="M51 0v623h406v-92h-296v-160h243v-93h-243v-186h293v-92h-403zM123 649l-36 55l161 96h31l158 -94l-38 -57l-135 66zM510 874q0 -21 -10 -36t-23.5 -26.5t-24 -23.5t-10.5 -28v-8h-70v28q0 16 9.5 28t22 22t22 20t9.5 19q0 14 -9 21.5t-23 7.5q-19 0 -33 -7.5t-23 -29.5
l-41 54q19 24 47 35t55 11q31 -1 54 -12t35.5 -30t12.5 -45z" />
    <glyph glyph-name="uni1EC4" unicode="&#x1ec4;" 
d="M51 0v623h406v-92h-296v-160h243v-93h-243v-186h293v-92h-403zM124 649l-36 55l161 96h31l158 -94l-38 -57l-135 66zM343 931l57 -26q-18 -41 -40.5 -59t-48.5 -18q-21 0 -36.5 8t-28 18.5t-23 18.5t-22.5 8q-13 0 -23.5 -10.5t-17.5 -28.5l-57 26q14 36 39.5 57t50.5 21
q20 0 36.5 -8t30.5 -19t25 -19t21 -8q11 0 19.5 8.5t17.5 30.5z" />
    <glyph glyph-name="uni0204" unicode="&#x204;" 
d="M51 0v623h406v-92h-296v-160h243v-93h-243v-186h293v-92h-403zM201 664l-110 142l79 57l83 -166zM361 664l-110 142l79 57l83 -166z" />
    <glyph glyph-name="Edieresis" unicode="&#xcb;" 
d="M51 0v623h406v-92h-296v-160h243v-93h-243v-186h293v-92h-403zM172 683q-27 0 -47 19t-20 45t20 45.5t47 19.5q30 0 49 -20t19 -45q0 -26 -20 -45t-48 -19zM356 683q-27 0 -46.5 18.5t-19.5 45.5t19.5 46t46.5 19q31 0 49 -20.5t18 -44.5q0 -26 -19.5 -45t-47.5 -19z" />
    <glyph glyph-name="Edotaccent" unicode="&#x116;" 
d="M51 0v623h406v-92h-296v-160h243v-93h-243v-186h293v-92h-403zM267 682q-29 0 -50 20t-21 48q0 30 20 49t51 19q28 0 49.5 -20t21.5 -48t-21.5 -48t-49.5 -20z" />
    <glyph glyph-name="uni1EB8" unicode="&#x1eb8;" 
d="M51 0v623h406v-92h-296v-160h243v-93h-243v-186h293v-92h-403zM248 -170q-29 0 -50 20t-21 48q0 30 20 49t51 19q28 0 49.5 -20t21.5 -48t-21.5 -48t-49.5 -20z" />
    <glyph glyph-name="Egrave" unicode="&#xc8;" 
d="M51 0v623h406v-92h-296v-160h243v-93h-243v-186h293v-92h-403zM328 654l-180 63l47 86l162 -96z" />
    <glyph glyph-name="uni1EBA" unicode="&#x1eba;" 
d="M51 0v623h406v-92h-296v-160h243v-93h-243v-186h293v-92h-403zM378 801q0 -21 -10 -36t-23.5 -26.5t-24 -23.5t-10.5 -28v-8h-70v28q0 16 9.5 28t22 22t22 20t9.5 19q0 14 -9 21.5t-23 7.5q-19 0 -33 -7.5t-23 -29.5l-41 54q19 24 47 35t55 11q31 -1 54 -12t35.5 -30
t12.5 -45z" />
    <glyph glyph-name="uni0206" unicode="&#x206;" 
d="M51 0v623h406v-92h-296v-160h243v-93h-243v-186h293v-92h-403zM186 680l-70 32q24 51 62.5 78.5t88.5 27.5t88.5 -27.5t62.5 -78.5l-70 -32q-16 36 -35 54t-46 18q-18 0 -33 -7.5t-27 -23.5t-21 -41z" />
    <glyph glyph-name="Emacron" unicode="&#x112;" 
d="M51 0v623h406v-92h-296v-160h243v-93h-243v-186h293v-92h-403zM125 724v76h280v-76h-280z" />
    <glyph glyph-name="uni1E16" unicode="&#x1e16;" 
d="M51 0v623h406v-92h-296v-160h243v-93h-243v-186h293v-92h-403zM125 724v76h280v-76h-280zM190 802l-28 54l163 95l44 -85z" />
    <glyph glyph-name="uni1E14" unicode="&#x1e14;" 
d="M51 0v623h406v-92h-296v-160h243v-93h-243v-186h293v-92h-403zM125 724v76h280v-76h-280zM328 803l-180 63l47 86l162 -96z" />
    <glyph glyph-name="Eogonek" unicode="&#x118;" 
d="M51 0v623h406v-92h-296v-160h243v-93h-243v-186h293v-92h-403zM392 -150l-45 -88q-45 12 -74 29t-43.5 38.5t-14.5 44.5q0 25 16 51.5t46.5 52.5t75.5 49l40 -27q-21 -18 -36.5 -35.5t-23.5 -32.5t-8 -28q0 -19 17 -32.5t50 -21.5z" />
    <glyph glyph-name="uni1EBC" unicode="&#x1ebc;" 
d="M51 0v623h406v-92h-296v-160h243v-93h-243v-186h293v-92h-403zM377 788l60 -31q-20 -43 -44 -61.5t-54 -18.5q-29 0 -48 9.5t-33 22t-25.5 21.5t-25.5 9q-17 0 -29.5 -12.5t-23.5 -36.5l-62 29q17 43 44 65t67 22q26 0 44 -9t31.5 -21t26 -21t27.5 -9q17 0 26 10.5
t19 31.5z" />
    <glyph glyph-name="uni01B8" unicode="&#x1b8;" 
d="M267 -19q-66 0 -115.5 26t-76.5 70t-27 96q0 50 18.5 89t52 67t80 42.5t102.5 14.5h34v-90q-50 1 -84 -7t-54 -24t-28.5 -38t-8.5 -48q0 -33 15.5 -56t41.5 -34t57 -11q34 0 59 8t45 26q10 14 13 20.5t2 14.5l6 8l7 -6l47 -87q-36 -41 -81.5 -61t-104.5 -20v0zM67 540v83
h348v-97h-212l132 -140l-89 -31z" />
    <glyph glyph-name="F" unicode="F" 
d="M66 0v623h388v-91h-287v-151h233v-91h-233v-290h-101z" />
    <glyph glyph-name="G" unicode="G" 
d="M276 -11q-78 0 -134.5 40t-86.5 112t-30 168q0 80 16.5 135.5t44.5 92.5t61.5 58t67 29.5t60.5 8.5q41 0 78.5 -13t68 -37t49.5 -59l-66 -65l-6 -7l-7 7q-1 8 -3 15.5t-13 20.5t-24.5 23t-31.5 15.5t-42 5.5q-22 0 -43 -7t-38.5 -23.5t-31.5 -42t-21 -62t-7 -85.5
q0 -60 10 -104.5t28.5 -74.5t44 -44.5t56.5 -14.5q13 0 25 1.5t24 5t23.5 9.5t22.5 15v115h-103v94h205v-267q-45 -35 -95 -50t-102 -15v0z" />
    <glyph glyph-name="Gbreve" unicode="&#x11e;" 
d="M276 -11q-78 0 -134.5 40t-86.5 112t-30 168q0 80 16.5 135.5t44.5 92.5t61.5 58t67 29.5t60.5 8.5q41 0 78.5 -13t68 -37t49.5 -59l-66 -65l-6 -7l-7 7q-1 8 -3 15.5t-13 20.5t-24.5 23t-31.5 15.5t-42 5.5q-22 0 -43 -7t-38.5 -23.5t-31.5 -42t-21 -62t-7 -85.5
q0 -60 10 -104.5t28.5 -74.5t44 -44.5t56.5 -14.5q13 0 25 1.5t24 5t23.5 9.5t22.5 15v115h-103v94h205v-267q-45 -35 -95 -50t-102 -15v0zM351 802l70 -32q-24 -51 -62.5 -78.5t-88.5 -27.5t-88.5 27.5t-62.5 78.5l70 32q16 -36 35 -54t46 -18q18 0 33 7.5t27 24t21 40.5z
" />
    <glyph glyph-name="Gcaron" unicode="&#x1e6;" 
d="M276 -11q-78 0 -134.5 40t-86.5 112t-30 168q0 80 16.5 135.5t44.5 92.5t61.5 58t67 29.5t60.5 8.5q41 0 78.5 -13t68 -37t49.5 -59l-66 -65l-6 -7l-7 7q-1 8 -3 15.5t-13 20.5t-24.5 23t-31.5 15.5t-42 5.5q-22 0 -43 -7t-38.5 -23.5t-31.5 -42t-21 -62t-7 -85.5
q0 -60 10 -104.5t28.5 -74.5t44 -44.5t56.5 -14.5q13 0 25 1.5t24 5t23.5 9.5t22.5 15v115h-103v94h205v-267q-45 -35 -95 -50t-102 -15v0zM410 812l36 -55l-161 -96h-31l-158 94l38 57l135 -66z" />
    <glyph glyph-name="Gcircumflex" unicode="&#x11c;" 
d="M276 -11q-78 0 -134.5 40t-86.5 112t-30 168q0 80 16.5 135.5t44.5 92.5t61.5 58t67 29.5t60.5 8.5q41 0 78.5 -13t68 -37t49.5 -59l-66 -65l-6 -7l-7 7q-1 8 -3 15.5t-13 20.5t-24.5 23t-31.5 15.5t-42 5.5q-22 0 -43 -7t-38.5 -23.5t-31.5 -42t-21 -62t-7 -85.5
q0 -60 10 -104.5t28.5 -74.5t44 -44.5t56.5 -14.5q13 0 25 1.5t24 5t23.5 9.5t22.5 15v115h-103v94h205v-267q-45 -35 -95 -50t-102 -15v0zM130 649l-36 55l161 96h31l158 -94l-38 -57l-135 66z" />
    <glyph glyph-name="uni0122" unicode="&#x122;" 
d="M276 -11q-78 0 -134.5 40t-86.5 112t-30 168q0 80 16.5 135.5t44.5 92.5t61.5 58t67 29.5t60.5 8.5q41 0 78.5 -13t68 -37t49.5 -59l-66 -65l-6 -7l-7 7q-1 8 -3 15.5t-13 20.5t-24.5 23t-31.5 15.5t-42 5.5q-22 0 -43 -7t-38.5 -23.5t-31.5 -42t-21 -62t-7 -85.5
q0 -60 10 -104.5t28.5 -74.5t44 -44.5t56.5 -14.5q13 0 25 1.5t24 5t23.5 9.5t22.5 15v115h-103v94h205v-267q-45 -35 -95 -50t-102 -15v0zM246 -295l-55 46q25 23 38 46t13 38q0 13 -10 24.5t-20.5 25.5t-10.5 35q0 30 21 46.5t48 16.5q35 0 55.5 -25.5t20.5 -65.5
q0 -28 -10.5 -58t-33 -62t-56.5 -67z" />
    <glyph glyph-name="Gdotaccent" unicode="&#x120;" 
d="M276 -11q-78 0 -134.5 40t-86.5 112t-30 168q0 80 16.5 135.5t44.5 92.5t61.5 58t67 29.5t60.5 8.5q41 0 78.5 -13t68 -37t49.5 -59l-66 -65l-6 -7l-7 7q-1 8 -3 15.5t-13 20.5t-24.5 23t-31.5 15.5t-42 5.5q-22 0 -43 -7t-38.5 -23.5t-31.5 -42t-21 -62t-7 -85.5
q0 -60 10 -104.5t28.5 -74.5t44 -44.5t56.5 -14.5q13 0 25 1.5t24 5t23.5 9.5t22.5 15v115h-103v94h205v-267q-45 -35 -95 -50t-102 -15v0zM271 682q-29 0 -50 20t-21 48q0 30 20 49t51 19q28 0 49.5 -20t21.5 -48t-21.5 -48t-49.5 -20z" />
    <glyph glyph-name="uni1E20" unicode="&#x1e20;" 
d="M276 -11q-78 0 -134.5 40t-86.5 112t-30 168q0 80 16.5 135.5t44.5 92.5t61.5 58t67 29.5t60.5 8.5q41 0 78.5 -13t68 -37t49.5 -59l-66 -65l-6 -7l-7 7q-1 8 -3 15.5t-13 20.5t-24.5 23t-31.5 15.5t-42 5.5q-22 0 -43 -7t-38.5 -23.5t-31.5 -42t-21 -62t-7 -85.5
q0 -60 10 -104.5t28.5 -74.5t44 -44.5t56.5 -14.5q13 0 25 1.5t24 5t23.5 9.5t22.5 15v115h-103v94h205v-267q-45 -35 -95 -50t-102 -15v0zM129 724v76h280v-76h-280z" />
    <glyph glyph-name="H" unicode="H" 
d="M38 623h113h10v-9q-6 -6 -7.5 -13t-1.5 -24v-207h192v253h114h9v-9q-6 -6 -7 -13t-1 -24v-577h-115v280h-192v-280h-114v623z" />
    <glyph glyph-name="Hbar" unicode="&#x126;" 
d="M6 482v88h489v-88h-489zM38 623h113h10v-9q-6 -6 -7.5 -13t-1.5 -24v-207h192v253h114h9v-9q-6 -6 -7 -13t-1 -24v-577h-115v280h-192v-280h-114v623z" />
    <glyph glyph-name="uni1E2A" unicode="&#x1e2a;" 
d="M38 623h113h10v-9q-6 -6 -7.5 -13t-1.5 -24v-207h192v253h114h9v-9q-6 -6 -7 -13t-1 -24v-577h-115v280h-192v-280h-114v623zM341 -51l70 -32q-24 -51 -62.5 -78.5t-88.5 -27.5t-88.5 27.5t-62.5 78.5l70 32q16 -36 35 -54t46 -18q18 0 33 7.5t27 24t21 40.5z" />
    <glyph glyph-name="Hcircumflex" unicode="&#x124;" 
d="M38 623h113h10v-9q-6 -6 -7.5 -13t-1.5 -24v-207h192v253h114h9v-9q-6 -6 -7 -13t-1 -24v-577h-115v280h-192v-280h-114v623zM110 649l-36 55l161 96h31l158 -94l-38 -57l-135 66z" />
    <glyph glyph-name="uni1E24" unicode="&#x1e24;" 
d="M38 623h113h10v-9q-6 -6 -7.5 -13t-1.5 -24v-207h192v253h114h9v-9q-6 -6 -7 -13t-1 -24v-577h-115v280h-192v-280h-114v623zM248 -170q-29 0 -50 20t-21 48q0 30 20 49t51 19q28 0 49.5 -20t21.5 -48t-21.5 -48t-49.5 -20z" />
    <glyph glyph-name="I" unicode="I" 
d="M70 0v91h122v441h-115v91h344v-91h-122v-441h127v-91h-356z" />
    <glyph glyph-name="Iacute" unicode="&#xcd;" 
d="M70 0v91h122v441h-115v91h344v-91h-122v-441h127v-91h-356zM170 653l-28 54l163 95l44 -85z" />
    <glyph glyph-name="Ibreve" unicode="&#x12c;" 
d="M70 0v91h122v441h-115v91h344v-91h-122v-441h127v-91h-356zM327 802l70 -32q-24 -51 -62.5 -78.5t-88.5 -27.5t-88.5 27.5t-62.5 78.5l70 32q16 -36 35 -54t46 -18q18 0 33 7.5t27 24t21 40.5z" />
    <glyph glyph-name="Icircumflex" unicode="&#xce;" 
d="M70 0v91h122v441h-115v91h344v-91h-122v-441h127v-91h-356zM105 649l-36 55l161 96h31l158 -94l-38 -57l-135 66z" />
    <glyph glyph-name="uni0208" unicode="&#x208;" 
d="M70 0v91h122v441h-115v91h344v-91h-122v-441h127v-91h-356zM181 664l-110 142l79 57l83 -166zM341 664l-110 142l79 57l83 -166z" />
    <glyph glyph-name="Idieresis" unicode="&#xcf;" 
d="M70 0v91h122v441h-115v91h344v-91h-122v-441h127v-91h-356zM152 683q-27 0 -47 19t-20 45t20 45.5t47 19.5q30 0 49 -20t19 -45q0 -26 -20 -45t-48 -19zM336 683q-27 0 -46.5 18.5t-19.5 45.5t19.5 46t46.5 19q31 0 49 -20.5t18 -44.5q0 -26 -19.5 -45t-47.5 -19z" />
    <glyph glyph-name="uni1E2E" unicode="&#x1e2e;" 
d="M70 0v91h122v441h-115v91h344v-91h-122v-441h127v-91h-356zM152 683q-27 0 -47 19t-20 45t20 45.5t47 19.5q30 0 49 -20t19 -45q0 -26 -20 -45t-48 -19zM336 683q-27 0 -46.5 18.5t-19.5 45.5t19.5 46t46.5 19q31 0 49 -20.5t18 -44.5q0 -26 -19.5 -45t-47.5 -19z
M169 811l-28 54l163 95l44 -85z" />
    <glyph glyph-name="Idotaccent" unicode="&#x130;" 
d="M70 0v91h122v441h-115v91h344v-91h-122v-441h127v-91h-356zM247 682q-29 0 -50 20t-21 48q0 30 20 49t51 19q28 0 49.5 -20t21.5 -48t-21.5 -48t-49.5 -20z" />
    <glyph glyph-name="uni1ECA" unicode="&#x1eca;" 
d="M70 0v91h122v441h-115v91h344v-91h-122v-441h127v-91h-356zM248 -170q-29 0 -50 20t-21 48q0 30 20 49t51 19q28 0 49.5 -20t21.5 -48t-21.5 -48t-49.5 -20z" />
    <glyph glyph-name="Igrave" unicode="&#xcc;" 
d="M70 0v91h122v441h-115v91h344v-91h-122v-441h127v-91h-356zM308 654l-180 63l47 86l162 -96z" />
    <glyph glyph-name="uni1EC8" unicode="&#x1ec8;" 
d="M70 0v91h122v441h-115v91h344v-91h-122v-441h127v-91h-356zM358 801q0 -21 -10 -36t-23.5 -26.5t-24 -23.5t-10.5 -28v-8h-70v28q0 16 9.5 28t22 22t22 20t9.5 19q0 14 -9 21.5t-23 7.5q-19 0 -33 -7.5t-23 -29.5l-41 54q19 24 47 35t55 11q31 -1 54 -12t35.5 -30
t12.5 -45z" />
    <glyph glyph-name="uni020A" unicode="&#x20a;" 
d="M70 0v91h122v441h-115v91h344v-91h-122v-441h127v-91h-356zM166 680l-70 32q24 51 62.5 78.5t88.5 27.5t88.5 -27.5t62.5 -78.5l-70 -32q-16 36 -35 54t-46 18q-18 0 -33 -7.5t-27 -23.5t-21 -41z" />
    <glyph glyph-name="Imacron" unicode="&#x12a;" 
d="M70 0v91h122v441h-115v91h344v-91h-122v-441h127v-91h-356zM105 724v76h280v-76h-280z" />
    <glyph glyph-name="Iogonek" unicode="&#x12e;" 
d="M70 0v91h122v441h-115v91h344v-91h-122v-441h127v-91h-356zM431 -150l-45 -88q-45 12 -74 29t-43.5 38.5t-14.5 44.5q0 25 16 51.5t46.5 52.5t75.5 49l40 -27q-21 -18 -36.5 -35.5t-23.5 -32.5t-8 -28q0 -19 17 -32.5t50 -21.5z" />
    <glyph glyph-name="Itilde" unicode="&#x128;" 
d="M70 0v91h122v441h-115v91h344v-91h-122v-441h127v-91h-356zM355 828l60 -31q-20 -43 -44 -61.5t-54 -18.5q-29 0 -48 9.5t-33 22t-25.5 21.5t-25.5 9q-17 0 -29.5 -12.5t-23.5 -36.5l-62 29q17 43 44 65t67 22q26 0 44 -9t31.5 -21t26 -21t27.5 -9q17 0 26 10.5t19 31.5z
" />
    <glyph glyph-name="J" unicode="J" 
d="M194 -15q-48 0 -91 17t-72 52l56 89l5 8l8 -5q2 -8 5 -16t15 -20q14 -10 30 -15.5t34 -5.5q26 0 43.5 14.5t26.5 44t9 73.5v311h-115v91h319v-91h-92v-319q1 -59 -14 -101.5t-41 -70.5t-59 -42t-67 -14v0z" />
    <glyph glyph-name="Jcircumflex" unicode="&#x134;" 
d="M194 -15q-48 0 -91 17t-72 52l56 89l5 8l8 -5q2 -8 5 -16t15 -20q14 -10 30 -15.5t34 -5.5q26 0 43.5 14.5t26.5 44t9 73.5v311h-115v91h319v-91h-92v-319q1 -59 -14 -101.5t-41 -70.5t-59 -42t-67 -14v0zM178 649l-36 55l161 96h31l158 -94l-38 -57l-135 66z" />
    <glyph glyph-name="K" unicode="K" 
d="M189 282l-41 -54v-228h-111v623h110h9v-9q-5 -6 -6.5 -13t-1.5 -24v-209l207 261q8 -2 17.5 -3t20 -2t20 -1h15.5h52l-211 -261l223 -361l-129 -5z" />
    <glyph glyph-name="uni0136" unicode="&#x136;" 
d="M189 282l-41 -54v-228h-111v623h110h9v-9q-5 -6 -6.5 -13t-1.5 -24v-209l207 261q8 -2 17.5 -3t20 -2t20 -1h15.5h52l-211 -261l223 -361l-129 -5zM220 -295l-55 46q25 23 38 46t13 38q0 13 -10 24.5t-20.5 25.5t-10.5 35q0 30 21 46.5t48 16.5q35 0 55.5 -25.5
t20.5 -65.5q0 -28 -10.5 -58t-33 -62t-56.5 -67z" />
    <glyph glyph-name="uni0198" unicode="&#x198;" 
d="M40 623h113h10v-9q-6 -6 -7.5 -13t-1.5 -24v-192q44 65 79.5 111.5t66.5 75.5t61 43t62 14q16 0 30.5 -3.5t22.5 -10.5v-106v-9h-9q-6 5 -12 11.5t-22 10.5q-3 1 -6 1h-7q-17 0 -36 -9t-41 -29.5t-49.5 -53.5t-61.5 -81.5t-78 -114.5v-235h-114v623zM149 333l75 80
l255 -412l-124 -6z" />
    <glyph glyph-name="L" unicode="L" 
d="M57 623h113h10v-9q-6 -6 -7.5 -13t-1.5 -24v-485h286v-92h-400v623z" />
    <glyph glyph-name="uni01C7" unicode="&#x1c7;" 
d="M284 -179q-41 0 -76 17t-61 50l70 79q6 -6 7 -10t1 -8t6 -11q4 -5 11.5 -11.5t17.5 -10.5t24 -4q23 0 37.5 15t21.5 46t7 79v481h-100v90h212v-93v0v-491q0 -57 -14 -98.5t-39 -67.5t-57 -39t-68 -13zM48 0v623h122q0 -7 -2 -9t-4 -6t-2 -20v-498h124v-90h-238z" />
    <glyph glyph-name="Lacute" unicode="&#x139;" 
d="M57 623h113h10v-9q-6 -6 -7.5 -13t-1.5 -24v-485h286v-92h-400v623zM154 653l-28 54l163 95l44 -85z" />
    <glyph glyph-name="Lcaron" unicode="&#x13d;" 
d="M344 396l-50 41q23 21 34.5 41.5t11.5 33.5t-9 23t-18.5 22.5t-9.5 30.5q0 27 18.5 41.5t43.5 14.5q31 0 49.5 -22.5t18.5 -58.5q0 -25 -10 -52t-29 -55.5t-50 -59.5zM57 623h113h10v-9q-6 -6 -7.5 -13t-1.5 -24v-485h286v-92h-400v623z" />
    <glyph glyph-name="uni013B" unicode="&#x13b;" 
d="M57 623h113h10v-9q-6 -6 -7.5 -13t-1.5 -24v-485h286v-92h-400v623zM232 -295l-55 46q25 23 38 46t13 38q0 13 -10 24.5t-20.5 25.5t-10.5 35q0 30 21 46.5t48 16.5q35 0 55.5 -25.5t20.5 -65.5q0 -28 -10.5 -58t-33 -62t-56.5 -67z" />
    <glyph glyph-name="Ldot" unicode="&#x13f;" 
d="M57 623h113h10v-9q-6 -6 -7.5 -13t-1.5 -24v-485h286v-92h-400v623zM323 258q-32 0 -54 22t-22 53q0 32 22.5 53.5t53.5 21.5t53.5 -21.5t22.5 -53.5q0 -31 -22 -53t-54 -22z" />
    <glyph glyph-name="uni1E36" unicode="&#x1e36;" 
d="M57 623h113h10v-9q-6 -6 -7.5 -13t-1.5 -24v-485h286v-92h-400v623zM248 -170q-29 0 -50 20t-21 48q0 30 20 49t51 19q28 0 49.5 -20t21.5 -48t-21.5 -48t-49.5 -20z" />
    <glyph glyph-name="uni01C8" unicode="&#x1c8;" 
d="M61 0v623h122q0 -10 -3.5 -15.5t-3.5 -19.5v-494h103v-94h-218zM262 -177q-23 0 -45 5.5t-41 16.5t-35 27l69 91q3 -4 3.5 -8t2 -8.5t6 -9.5t14.5 -11l8 -4t9.5 -3t11.5 -1q16 0 29 5.5t23.5 18t16 31.5t5.5 46v357h-102v91h215v-444q0 -53 -14.5 -90.5t-40.5 -62
t-60.5 -36t-74.5 -11.5zM392 542q-29 0 -50 20t-21 48q0 29 20 48.5t51 19.5q28 0 49.5 -20.5t21.5 -47.5q0 -28 -21.5 -48t-49.5 -20z" />
    <glyph glyph-name="uni1E3A" unicode="&#x1e3a;" 
d="M57 623h113h10v-9q-6 -6 -7.5 -13t-1.5 -24v-485h286v-92h-400v623zM110 -156v76h280v-76h-280z" />
    <glyph glyph-name="Lslash" unicode="&#x141;" 
d="M67 0v221l-56 -18v95l56 18v307h122q1 -1 1.5 -2t0.5 -3q0 -4 -4 -8t-5 -22v-234l138 45q10 3 19 7t17 11v-105l-174 -57v-163h283v-92h-398z" />
    <glyph glyph-name="M" unicode="M" 
d="M32 0v623h99l121 -286l121 287h99v-624h-98v435l-98 -229h-55l-92 228v-434h-97z" />
    <glyph glyph-name="uni1E42" unicode="&#x1e42;" 
d="M32 0v623h99l121 -286l121 287h99v-624h-98v435l-98 -229h-55l-92 228v-434h-97zM248 -170q-29 0 -50 20t-21 48q0 30 20 49t51 19q28 0 49.5 -20t21.5 -48t-21.5 -48t-49.5 -20z" />
    <glyph glyph-name="N" unicode="N" 
d="M37 623h118l211 -410l-6 410h101h9v-9q-5 -6 -6.5 -13t-1.5 -24v-577h-105l-218 437v-437h-102v623z" />
    <glyph glyph-name="Nacute" unicode="&#x143;" 
d="M37 623h118l211 -410l-6 410h101h9v-9q-5 -6 -6.5 -13t-1.5 -24v-577h-105l-218 437v-437h-102v623zM174 653l-28 54l163 95l44 -85z" />
    <glyph glyph-name="Ncaron" unicode="&#x147;" 
d="M37 623h118l211 -410l-6 410h101h9v-9q-5 -6 -6.5 -13t-1.5 -24v-577h-105l-218 437v-437h-102v623zM390 812l36 -55l-161 -96h-31l-158 94l38 57l135 -66z" />
    <glyph glyph-name="uni0145" unicode="&#x145;" 
d="M37 623h118l211 -410l-6 410h101h9v-9q-5 -6 -6.5 -13t-1.5 -24v-577h-105l-218 437v-437h-102v623zM232 -295l-55 46q25 23 38 46t13 38q0 13 -10 24.5t-20.5 25.5t-10.5 35q0 30 21 46.5t48 16.5q35 0 55.5 -25.5t20.5 -65.5q0 -28 -10.5 -58t-33 -62t-56.5 -67z" />
    <glyph glyph-name="uni1E44" unicode="&#x1e44;" 
d="M37 623h118l211 -410l-6 410h101h9v-9q-5 -6 -6.5 -13t-1.5 -24v-577h-105l-218 437v-437h-102v623zM251 682q-29 0 -50 20t-21 48q0 30 20 49t51 19q28 0 49.5 -20t21.5 -48t-21.5 -48t-49.5 -20z" />
    <glyph glyph-name="uni1E46" unicode="&#x1e46;" 
d="M37 623h118l211 -410l-6 410h101h9v-9q-5 -6 -6.5 -13t-1.5 -24v-577h-105l-218 437v-437h-102v623zM248 -170q-29 0 -50 20t-21 48q0 30 20 49t51 19q28 0 49.5 -20t21.5 -48t-21.5 -48t-49.5 -20z" />
    <glyph glyph-name="Eng" unicode="&#x14a;" 
d="M369 623h104q0 -14 -3.5 -21.5t-3.5 -21.5v-580q0 -61 -21 -106t-57 -69t-80 -24q-28 0 -58 10.5t-59 31.5l52 91q9 0 13.5 -5t8.5 -10.5t12.5 -10.5t23.5 -5q20 0 34 11t21.5 33t7.5 54l-228 436v-437h-102v623h118l217 -410v410z" />
    <glyph glyph-name="uni1E48" unicode="&#x1e48;" 
d="M37 623h118l211 -410l-6 410h101h9v-9q-5 -6 -6.5 -13t-1.5 -24v-577h-105l-218 437v-437h-102v623zM110 -156v76h280v-76h-280z" />
    <glyph glyph-name="Ntilde" unicode="&#xd1;" 
d="M37 623h118l211 -410l-6 410h101h9v-9q-5 -6 -6.5 -13t-1.5 -24v-577h-105l-218 437v-437h-102v623zM361 788l60 -31q-20 -43 -44 -61.5t-54 -18.5q-29 0 -48 9.5t-33 22t-25.5 21.5t-25.5 9q-17 0 -29.5 -12.5t-23.5 -36.5l-62 29q17 43 44 65t67 22q26 0 44 -9
t31.5 -21t26 -21t27.5 -9q17 0 26 10.5t19 31.5z" />
    <glyph glyph-name="O" unicode="O" 
d="M252 -12q-77 0 -128.5 38t-78 110t-26.5 175q0 101 26.5 172.5t78 110t128.5 38.5q76 0 127.5 -38.5t78 -110t26.5 -172.5q0 -103 -26.5 -175.5t-78 -110t-127.5 -37.5zM252 80q38 0 64.5 25.5t41 77t14.5 129.5q0 73 -14.5 124t-41 77.5t-64.5 26.5t-65 -26.5
t-41.5 -77.5t-14.5 -124q0 -78 14.5 -129.5t41.5 -77t65 -25.5z" />
    <glyph glyph-name="Oacute" unicode="&#xd3;" 
d="M252 -12q-77 0 -128.5 38t-78 110t-26.5 175q0 101 26.5 172.5t78 110t128.5 38.5q76 0 127.5 -38.5t78 -110t26.5 -172.5q0 -103 -26.5 -175.5t-78 -110t-127.5 -37.5zM252 80q38 0 64.5 25.5t41 77t14.5 129.5q0 73 -14.5 124t-41 77.5t-64.5 26.5t-65 -26.5
t-41.5 -77.5t-14.5 -124q0 -78 14.5 -129.5t41.5 -77t65 -25.5zM176 656l-28 54l163 95l44 -85z" />
    <glyph glyph-name="Obreve" unicode="&#x14e;" 
d="M252 -12q-77 0 -128.5 38t-78 110t-26.5 175q0 101 26.5 172.5t78 110t128.5 38.5q76 0 127.5 -38.5t78 -110t26.5 -172.5q0 -103 -26.5 -175.5t-78 -110t-127.5 -37.5zM252 80q38 0 64.5 25.5t41 77t14.5 129.5q0 73 -14.5 124t-41 77.5t-64.5 26.5t-65 -26.5
t-41.5 -77.5t-14.5 -124q0 -78 14.5 -129.5t41.5 -77t65 -25.5zM332 805l70 -32q-24 -51 -62.5 -78.5t-88.5 -27.5t-88.5 27.5t-62.5 78.5l70 32q16 -36 35 -54t46 -18q18 0 33 7.5t27 24t21 40.5z" />
    <glyph glyph-name="Ocircumflex" unicode="&#xd4;" 
d="M252 -12q-77 0 -128.5 38t-78 110t-26.5 175q0 101 26.5 172.5t78 110t128.5 38.5q76 0 127.5 -38.5t78 -110t26.5 -172.5q0 -103 -26.5 -175.5t-78 -110t-127.5 -37.5zM252 80q38 0 64.5 25.5t41 77t14.5 129.5q0 73 -14.5 124t-41 77.5t-64.5 26.5t-65 -26.5
t-41.5 -77.5t-14.5 -124q0 -78 14.5 -129.5t41.5 -77t65 -25.5zM111 652l-36 55l161 96h31l158 -94l-38 -57l-135 66z" />
    <glyph glyph-name="uni1ED0" unicode="&#x1ed0;" 
d="M252 -12q-77 0 -128.5 38t-78 110t-26.5 175q0 101 26.5 172.5t78 110t128.5 38.5q76 0 127.5 -38.5t78 -110t26.5 -172.5q0 -103 -26.5 -175.5t-78 -110t-127.5 -37.5zM252 80q38 0 64.5 25.5t41 77t14.5 129.5q0 73 -14.5 124t-41 77.5t-64.5 26.5t-65 -26.5
t-41.5 -77.5t-14.5 -124q0 -78 14.5 -129.5t41.5 -77t65 -25.5zM109 652l-36 55l161 96h31l158 -94l-38 -57l-135 66zM374 770l-28 54l163 95l44 -85z" />
    <glyph glyph-name="uni1ED8" unicode="&#x1ed8;" 
d="M252 -12q-77 0 -128.5 38t-78 110t-26.5 175q0 101 26.5 172.5t78 110t128.5 38.5q76 0 127.5 -38.5t78 -110t26.5 -172.5q0 -103 -26.5 -175.5t-78 -110t-127.5 -37.5zM252 80q38 0 64.5 25.5t41 77t14.5 129.5q0 73 -14.5 124t-41 77.5t-64.5 26.5t-65 -26.5
t-41.5 -77.5t-14.5 -124q0 -78 14.5 -129.5t41.5 -77t65 -25.5zM249 -170q-29 0 -50 20t-21 48q0 30 20 49t51 19q28 0 49.5 -20t21.5 -48t-21.5 -48t-49.5 -20zM111 652l-36 55l161 96h31l158 -94l-38 -57l-135 66z" />
    <glyph glyph-name="uni1ED2" unicode="&#x1ed2;" 
d="M252 -12q-77 0 -128.5 38t-78 110t-26.5 175q0 101 26.5 172.5t78 110t128.5 38.5q76 0 127.5 -38.5t78 -110t26.5 -172.5q0 -103 -26.5 -175.5t-78 -110t-127.5 -37.5zM252 80q38 0 64.5 25.5t41 77t14.5 129.5q0 73 -14.5 124t-41 77.5t-64.5 26.5t-65 -26.5
t-41.5 -77.5t-14.5 -124q0 -78 14.5 -129.5t41.5 -77t65 -25.5zM112 652l-36 55l161 96h31l158 -94l-38 -57l-135 66zM345 809l-180 63l47 86l162 -96z" />
    <glyph glyph-name="uni1ED4" unicode="&#x1ed4;" 
d="M252 -12q-77 0 -128.5 38t-78 110t-26.5 175q0 101 26.5 172.5t78 110t128.5 38.5q76 0 127.5 -38.5t78 -110t26.5 -172.5q0 -103 -26.5 -175.5t-78 -110t-127.5 -37.5zM252 80q38 0 64.5 25.5t41 77t14.5 129.5q0 73 -14.5 124t-41 77.5t-64.5 26.5t-65 -26.5
t-41.5 -77.5t-14.5 -124q0 -78 14.5 -129.5t41.5 -77t65 -25.5zM108 652l-36 55l161 96h31l158 -94l-38 -57l-135 66zM495 877q0 -21 -10 -36t-23.5 -26.5t-24 -23.5t-10.5 -28v-8h-70v28q0 16 9.5 28t22 22t22 20t9.5 19q0 14 -9 21.5t-23 7.5q-19 0 -33 -7.5t-23 -29.5
l-41 54q19 24 47 35t55 11q31 -1 54 -12t35.5 -30t12.5 -45z" />
    <glyph glyph-name="uni1ED6" unicode="&#x1ed6;" 
d="M252 -12q-77 0 -128.5 38t-78 110t-26.5 175q0 101 26.5 172.5t78 110t128.5 38.5q76 0 127.5 -38.5t78 -110t26.5 -172.5q0 -103 -26.5 -175.5t-78 -110t-127.5 -37.5zM252 80q38 0 64.5 25.5t41 77t14.5 129.5q0 73 -14.5 124t-41 77.5t-64.5 26.5t-65 -26.5
t-41.5 -77.5t-14.5 -124q0 -78 14.5 -129.5t41.5 -77t65 -25.5zM110 652l-36 55l161 96h31l158 -94l-38 -57l-135 66zM329 934l57 -26q-18 -41 -40.5 -59t-48.5 -18q-21 0 -36.5 8t-28 18.5t-23 18.5t-22.5 8q-13 0 -23.5 -10.5t-17.5 -28.5l-57 26q14 36 39.5 57t50.5 21
q20 0 36.5 -8t30.5 -19t25 -19t21 -8q11 0 19.5 8.5t17.5 30.5z" />
    <glyph glyph-name="uni020C" unicode="&#x20c;" 
d="M252 -12q-77 0 -128.5 38t-78 110t-26.5 175q0 101 26.5 172.5t78 110t128.5 38.5q76 0 127.5 -38.5t78 -110t26.5 -172.5q0 -103 -26.5 -175.5t-78 -110t-127.5 -37.5zM252 80q38 0 64.5 25.5t41 77t14.5 129.5q0 73 -14.5 124t-41 77.5t-64.5 26.5t-65 -26.5
t-41.5 -77.5t-14.5 -124q0 -78 14.5 -129.5t41.5 -77t65 -25.5zM186 667l-110 142l79 57l83 -166zM346 667l-110 142l79 57l83 -166z" />
    <glyph glyph-name="Odieresis" unicode="&#xd6;" 
d="M252 -12q-77 0 -128.5 38t-78 110t-26.5 175q0 101 26.5 172.5t78 110t128.5 38.5q76 0 127.5 -38.5t78 -110t26.5 -172.5q0 -103 -26.5 -175.5t-78 -110t-127.5 -37.5zM252 80q38 0 64.5 25.5t41 77t14.5 129.5q0 73 -14.5 124t-41 77.5t-64.5 26.5t-65 -26.5
t-41.5 -77.5t-14.5 -124q0 -78 14.5 -129.5t41.5 -77t65 -25.5zM158 686q-27 0 -47 19t-20 45t20 45.5t47 19.5q30 0 49 -20t19 -45q0 -26 -20 -45t-48 -19zM342 686q-27 0 -46.5 18.5t-19.5 45.5t19.5 46t46.5 19q31 0 49 -20.5t18 -44.5q0 -26 -19.5 -45t-47.5 -19z" />
    <glyph glyph-name="uni022A" unicode="&#x22a;" 
d="M252 -12q-77 0 -128.5 38t-78 110t-26.5 175q0 101 26.5 172.5t78 110t128.5 38.5q76 0 127.5 -38.5t78 -110t26.5 -172.5q0 -103 -26.5 -175.5t-78 -110t-127.5 -37.5zM252 80q38 0 64.5 25.5t41 77t14.5 129.5q0 73 -14.5 124t-41 77.5t-64.5 26.5t-65 -26.5
t-41.5 -77.5t-14.5 -124q0 -78 14.5 -129.5t41.5 -77t65 -25.5zM158 686q-27 0 -47 19t-20 45t20 45.5t47 19.5q30 0 49 -20t19 -45q0 -26 -20 -45t-48 -19zM342 686q-27 0 -46.5 18.5t-19.5 45.5t19.5 46t46.5 19q31 0 49 -20.5t18 -44.5q0 -26 -19.5 -45t-47.5 -19z
M110 885v76h280v-76h-280z" />
    <glyph glyph-name="uni0230" unicode="&#x230;" 
d="M252 -12q-77 0 -128.5 38t-78 110t-26.5 175q0 101 26.5 172.5t78 110t128.5 38.5q76 0 127.5 -38.5t78 -110t26.5 -172.5q0 -103 -26.5 -175.5t-78 -110t-127.5 -37.5zM252 80q38 0 64.5 25.5t41 77t14.5 129.5q0 73 -14.5 124t-41 77.5t-64.5 26.5t-65 -26.5
t-41.5 -77.5t-14.5 -124q0 -78 14.5 -129.5t41.5 -77t65 -25.5zM252 685q-29 0 -50 20t-21 48q0 30 20 49t51 19q28 0 49.5 -20t21.5 -48t-21.5 -48t-49.5 -20zM112 855v76h280v-76h-280z" />
    <glyph glyph-name="uni1ECC" unicode="&#x1ecc;" 
d="M252 -12q-77 0 -128.5 38t-78 110t-26.5 175q0 101 26.5 172.5t78 110t128.5 38.5q76 0 127.5 -38.5t78 -110t26.5 -172.5q0 -103 -26.5 -175.5t-78 -110t-127.5 -37.5zM252 80q38 0 64.5 25.5t41 77t14.5 129.5q0 73 -14.5 124t-41 77.5t-64.5 26.5t-65 -26.5
t-41.5 -77.5t-14.5 -124q0 -78 14.5 -129.5t41.5 -77t65 -25.5zM249 -170q-29 0 -50 20t-21 48q0 30 20 49t51 19q28 0 49.5 -20t21.5 -48t-21.5 -48t-49.5 -20z" />
    <glyph glyph-name="Ograve" unicode="&#xd2;" 
d="M252 -12q-77 0 -128.5 38t-78 110t-26.5 175q0 101 26.5 172.5t78 110t128.5 38.5q76 0 127.5 -38.5t78 -110t26.5 -172.5q0 -103 -26.5 -175.5t-78 -110t-127.5 -37.5zM252 80q38 0 64.5 25.5t41 77t14.5 129.5q0 73 -14.5 124t-41 77.5t-64.5 26.5t-65 -26.5
t-41.5 -77.5t-14.5 -124q0 -78 14.5 -129.5t41.5 -77t65 -25.5zM314 657l-180 63l47 86l162 -96z" />
    <glyph glyph-name="uni1ECE" unicode="&#x1ece;" 
d="M252 -12q-77 0 -128.5 38t-78 110t-26.5 175q0 101 26.5 172.5t78 110t128.5 38.5q76 0 127.5 -38.5t78 -110t26.5 -172.5q0 -103 -26.5 -175.5t-78 -110t-127.5 -37.5zM252 80q38 0 64.5 25.5t41 77t14.5 129.5q0 73 -14.5 124t-41 77.5t-64.5 26.5t-65 -26.5
t-41.5 -77.5t-14.5 -124q0 -78 14.5 -129.5t41.5 -77t65 -25.5zM364 804q0 -21 -10 -36t-23.5 -26.5t-24 -23.5t-10.5 -28v-8h-70v28q0 16 9.5 28t22 22t22 20t9.5 19q0 14 -9 21.5t-23 7.5q-19 0 -33 -7.5t-23 -29.5l-41 54q19 24 47 35t55 11q31 -1 54 -12t35.5 -30
t12.5 -45z" />
    <glyph glyph-name="Ohorn" unicode="&#x1a0;" 
d="M252 -12q-77 0 -128.5 38t-78 110t-26.5 175q0 101 26.5 172.5t78 110t128.5 38.5q76 0 127.5 -38.5t78 -110t26.5 -172.5q0 -103 -26.5 -175.5t-78 -110t-127.5 -37.5zM252 80q38 0 64.5 25.5t41 77t14.5 129.5q0 73 -14.5 124t-41 77.5t-64.5 26.5t-65 -26.5
t-41.5 -77.5t-14.5 -124q0 -78 14.5 -129.5t41.5 -77t65 -25.5zM401 506l-10 73q14 0 20 9.5t7.5 30t1.5 54.5h70q0 -52 -6 -89.5t-24.5 -57.5t-58.5 -20z" />
    <glyph glyph-name="uni1EDA" unicode="&#x1eda;" 
d="M252 -12q-77 0 -128.5 38t-78 110t-26.5 175q0 101 26.5 172.5t78 110t128.5 38.5q76 0 127.5 -38.5t78 -110t26.5 -172.5q0 -103 -26.5 -175.5t-78 -110t-127.5 -37.5zM252 80q38 0 64.5 25.5t41 77t14.5 129.5q0 73 -14.5 124t-41 77.5t-64.5 26.5t-65 -26.5
t-41.5 -77.5t-14.5 -124q0 -78 14.5 -129.5t41.5 -77t65 -25.5zM401 506l-10 73q14 0 20 9.5t7.5 30t1.5 54.5h70q0 -52 -6 -89.5t-24.5 -57.5t-58.5 -20zM176 656l-28 54l163 95l44 -85z" />
    <glyph glyph-name="uni1EE2" unicode="&#x1ee2;" 
d="M252 -12q-77 0 -128.5 38t-78 110t-26.5 175q0 101 26.5 172.5t78 110t128.5 38.5q76 0 127.5 -38.5t78 -110t26.5 -172.5q0 -103 -26.5 -175.5t-78 -110t-127.5 -37.5zM252 80q38 0 64.5 25.5t41 77t14.5 129.5q0 73 -14.5 124t-41 77.5t-64.5 26.5t-65 -26.5
t-41.5 -77.5t-14.5 -124q0 -78 14.5 -129.5t41.5 -77t65 -25.5zM401 506l-10 73q14 0 20 9.5t7.5 30t1.5 54.5h70q0 -52 -6 -89.5t-24.5 -57.5t-58.5 -20zM249 -170q-29 0 -50 20t-21 48q0 30 20 49t51 19q28 0 49.5 -20t21.5 -48t-21.5 -48t-49.5 -20z" />
    <glyph glyph-name="uni1EDC" unicode="&#x1edc;" 
d="M252 -12q-77 0 -128.5 38t-78 110t-26.5 175q0 101 26.5 172.5t78 110t128.5 38.5q76 0 127.5 -38.5t78 -110t26.5 -172.5q0 -103 -26.5 -175.5t-78 -110t-127.5 -37.5zM252 80q38 0 64.5 25.5t41 77t14.5 129.5q0 73 -14.5 124t-41 77.5t-64.5 26.5t-65 -26.5
t-41.5 -77.5t-14.5 -124q0 -78 14.5 -129.5t41.5 -77t65 -25.5zM401 506l-10 73q14 0 20 9.5t7.5 30t1.5 54.5h70q0 -52 -6 -89.5t-24.5 -57.5t-58.5 -20zM314 657l-180 63l47 86l162 -96z" />
    <glyph glyph-name="uni1EDE" unicode="&#x1ede;" 
d="M252 -12q-77 0 -128.5 38t-78 110t-26.5 175q0 101 26.5 172.5t78 110t128.5 38.5q76 0 127.5 -38.5t78 -110t26.5 -172.5q0 -103 -26.5 -175.5t-78 -110t-127.5 -37.5zM252 80q38 0 64.5 25.5t41 77t14.5 129.5q0 73 -14.5 124t-41 77.5t-64.5 26.5t-65 -26.5
t-41.5 -77.5t-14.5 -124q0 -78 14.5 -129.5t41.5 -77t65 -25.5zM401 506l-10 73q14 0 20 9.5t7.5 30t1.5 54.5h70q0 -52 -6 -89.5t-24.5 -57.5t-58.5 -20zM364 804q0 -21 -10 -36t-23.5 -26.5t-24 -23.5t-10.5 -28v-8h-70v28q0 16 9.5 28t22 22t22 20t9.5 19q0 14 -9 21.5
t-23 7.5q-19 0 -33 -7.5t-23 -29.5l-41 54q19 24 47 35t55 11q31 -1 54 -12t35.5 -30t12.5 -45z" />
    <glyph glyph-name="uni1EE0" unicode="&#x1ee0;" 
d="M252 -12q-77 0 -128.5 38t-78 110t-26.5 175q0 101 26.5 172.5t78 110t128.5 38.5q76 0 127.5 -38.5t78 -110t26.5 -172.5q0 -103 -26.5 -175.5t-78 -110t-127.5 -37.5zM252 80q38 0 64.5 25.5t41 77t14.5 129.5q0 73 -14.5 124t-41 77.5t-64.5 26.5t-65 -26.5
t-41.5 -77.5t-14.5 -124q0 -78 14.5 -129.5t41.5 -77t65 -25.5zM401 506l-10 73q14 0 20 9.5t7.5 30t1.5 54.5h70q0 -52 -6 -89.5t-24.5 -57.5t-58.5 -20zM362 791l60 -31q-20 -43 -44 -61.5t-54 -18.5q-29 0 -48 9.5t-33 22t-25.5 21.5t-25.5 9q-17 0 -29.5 -12.5
t-23.5 -36.5l-62 29q17 43 44 65t67 22q26 0 44 -9t31.5 -21t26 -21t27.5 -9q17 0 26 10.5t19 31.5z" />
    <glyph glyph-name="Ohungarumlaut" unicode="&#x150;" 
d="M252 -12q-77 0 -128.5 38t-78 110t-26.5 175q0 101 26.5 172.5t78 110t128.5 38.5q76 0 127.5 -38.5t78 -110t26.5 -172.5q0 -103 -26.5 -175.5t-78 -110t-127.5 -37.5zM252 80q38 0 64.5 25.5t41 77t14.5 129.5q0 73 -14.5 124t-41 77.5t-64.5 26.5t-65 -26.5
t-41.5 -77.5t-14.5 -124q0 -78 14.5 -129.5t41.5 -77t65 -25.5zM279 644l-38 48l138 125l55 -71zM100 644l-38 48l138 125l55 -71z" />
    <glyph glyph-name="uni020E" unicode="&#x20e;" 
d="M252 -12q-77 0 -128.5 38t-78 110t-26.5 175q0 101 26.5 172.5t78 110t128.5 38.5q76 0 127.5 -38.5t78 -110t26.5 -172.5q0 -103 -26.5 -175.5t-78 -110t-127.5 -37.5zM252 80q38 0 64.5 25.5t41 77t14.5 129.5q0 73 -14.5 124t-41 77.5t-64.5 26.5t-65 -26.5
t-41.5 -77.5t-14.5 -124q0 -78 14.5 -129.5t41.5 -77t65 -25.5zM172 683l-70 32q24 51 62.5 78.5t88.5 27.5t88.5 -27.5t62.5 -78.5l-70 -32q-16 36 -35 54t-46 18q-18 0 -33 -7.5t-27 -23.5t-21 -41z" />
    <glyph glyph-name="Omacron" unicode="&#x14c;" 
d="M252 -12q-77 0 -128.5 38t-78 110t-26.5 175q0 101 26.5 172.5t78 110t128.5 38.5q76 0 127.5 -38.5t78 -110t26.5 -172.5q0 -103 -26.5 -175.5t-78 -110t-127.5 -37.5zM252 80q38 0 64.5 25.5t41 77t14.5 129.5q0 73 -14.5 124t-41 77.5t-64.5 26.5t-65 -26.5
t-41.5 -77.5t-14.5 -124q0 -78 14.5 -129.5t41.5 -77t65 -25.5zM110 727v76h280v-76h-280z" />
    <glyph glyph-name="uni1E52" unicode="&#x1e52;" 
d="M252 -12q-77 0 -128.5 38t-78 110t-26.5 175q0 101 26.5 172.5t78 110t128.5 38.5q76 0 127.5 -38.5t78 -110t26.5 -172.5q0 -103 -26.5 -175.5t-78 -110t-127.5 -37.5zM252 80q38 0 64.5 25.5t41 77t14.5 129.5q0 73 -14.5 124t-41 77.5t-64.5 26.5t-65 -26.5
t-41.5 -77.5t-14.5 -124q0 -78 14.5 -129.5t41.5 -77t65 -25.5zM110 727v76h280v-76h-280zM176 805l-28 54l163 95l44 -85z" />
    <glyph glyph-name="uni1E50" unicode="&#x1e50;" 
d="M252 -12q-77 0 -128.5 38t-78 110t-26.5 175q0 101 26.5 172.5t78 110t128.5 38.5q76 0 127.5 -38.5t78 -110t26.5 -172.5q0 -103 -26.5 -175.5t-78 -110t-127.5 -37.5zM252 80q38 0 64.5 25.5t41 77t14.5 129.5q0 73 -14.5 124t-41 77.5t-64.5 26.5t-65 -26.5
t-41.5 -77.5t-14.5 -124q0 -78 14.5 -129.5t41.5 -77t65 -25.5zM110 727v76h280v-76h-280zM314 806l-180 63l47 86l162 -96z" />
    <glyph glyph-name="uni01EA" unicode="&#x1ea;" 
d="M252 -12q-77 0 -128.5 38t-78 110t-26.5 175q0 101 26.5 172.5t78 110t128.5 38.5q76 0 127.5 -38.5t78 -110t26.5 -172.5q0 -103 -26.5 -175.5t-78 -110t-127.5 -37.5zM252 80q38 0 64.5 25.5t41 77t14.5 129.5q0 73 -14.5 124t-41 77.5t-64.5 26.5t-65 -26.5
t-41.5 -77.5t-14.5 -124q0 -78 14.5 -129.5t41.5 -77t65 -25.5zM357 -136l-45 -88q-45 12 -74 29t-43.5 38.5t-14.5 44.5q0 25 16 51.5t46.5 52.5t75.5 49l40 -27q-21 -18 -36.5 -35.5t-23.5 -32.5t-8 -28q0 -19 17 -32.5t50 -21.5z" />
    <glyph glyph-name="Oslash" unicode="&#xd8;" 
d="M88 -56l-57 29l376 709l56 -29zM252 -12q-77 0 -128.5 38t-78 110t-26.5 175q0 101 26.5 172.5t78 110t128.5 38.5q76 0 127.5 -38.5t78 -110t26.5 -172.5q0 -103 -26.5 -175.5t-78 -110t-127.5 -37.5zM252 80q38 0 64.5 25.5t41 77t14.5 129.5q0 73 -14.5 124t-41 77.5
t-64.5 26.5t-65 -26.5t-41.5 -77.5t-14.5 -124q0 -78 14.5 -129.5t41.5 -77t65 -25.5z" />
    <glyph glyph-name="Oslashacute" unicode="&#x1fe;" 
d="M88 -56l-57 29l376 709l56 -29zM252 -12q-77 0 -128.5 38t-78 110t-26.5 175q0 101 26.5 172.5t78 110t128.5 38.5q76 0 127.5 -38.5t78 -110t26.5 -172.5q0 -103 -26.5 -175.5t-78 -110t-127.5 -37.5zM252 80q38 0 64.5 25.5t41 77t14.5 129.5q0 73 -14.5 124t-41 77.5
t-64.5 26.5t-65 -26.5t-41.5 -77.5t-14.5 -124q0 -78 14.5 -129.5t41.5 -77t65 -25.5zM176 656l-28 54l163 95l44 -85z" />
    <glyph glyph-name="Otilde" unicode="&#xd5;" 
d="M252 -12q-77 0 -128.5 38t-78 110t-26.5 175q0 101 26.5 172.5t78 110t128.5 38.5q76 0 127.5 -38.5t78 -110t26.5 -172.5q0 -103 -26.5 -175.5t-78 -110t-127.5 -37.5zM252 80q38 0 64.5 25.5t41 77t14.5 129.5q0 73 -14.5 124t-41 77.5t-64.5 26.5t-65 -26.5
t-41.5 -77.5t-14.5 -124q0 -78 14.5 -129.5t41.5 -77t65 -25.5zM362 791l60 -31q-20 -43 -44 -61.5t-54 -18.5q-29 0 -48 9.5t-33 22t-25.5 21.5t-25.5 9q-17 0 -29.5 -12.5t-23.5 -36.5l-62 29q17 43 44 65t67 22q26 0 44 -9t31.5 -21t26 -21t27.5 -9q17 0 26 10.5t19 31.5
z" />
    <glyph glyph-name="uni1E4C" unicode="&#x1e4c;" 
d="M252 -12q-77 0 -128.5 38t-78 110t-26.5 175q0 101 26.5 172.5t78 110t128.5 38.5q76 0 127.5 -38.5t78 -110t26.5 -172.5q0 -103 -26.5 -175.5t-78 -110t-127.5 -37.5zM252 80q38 0 64.5 25.5t41 77t14.5 129.5q0 73 -14.5 124t-41 77.5t-64.5 26.5t-65 -26.5
t-41.5 -77.5t-14.5 -124q0 -78 14.5 -129.5t41.5 -77t65 -25.5zM362 791l60 -31q-20 -43 -44 -61.5t-54 -18.5q-29 0 -48 9.5t-33 22t-25.5 21.5t-25.5 9q-17 0 -29.5 -12.5t-23.5 -36.5l-62 29q17 43 44 65t67 22q26 0 44 -9t31.5 -21t26 -21t27.5 -9q17 0 26 10.5t19 31.5
zM176 821l-28 54l163 95l44 -85z" />
    <glyph glyph-name="uni1E4E" unicode="&#x1e4e;" 
d="M252 -12q-77 0 -128.5 38t-78 110t-26.5 175q0 101 26.5 172.5t78 110t128.5 38.5q76 0 127.5 -38.5t78 -110t26.5 -172.5q0 -103 -26.5 -175.5t-78 -110t-127.5 -37.5zM252 80q38 0 64.5 25.5t41 77t14.5 129.5q0 73 -14.5 124t-41 77.5t-64.5 26.5t-65 -26.5
t-41.5 -77.5t-14.5 -124q0 -78 14.5 -129.5t41.5 -77t65 -25.5zM362 791l60 -31q-20 -43 -44 -61.5t-54 -18.5q-29 0 -48 9.5t-33 22t-25.5 21.5t-25.5 9q-17 0 -29.5 -12.5t-23.5 -36.5l-62 29q17 43 44 65t67 22q26 0 44 -9t31.5 -21t26 -21t27.5 -9q17 0 26 10.5t19 31.5
zM158 851q-27 0 -47 19t-20 45t20 45.5t47 19.5q30 0 49 -20t19 -45q0 -26 -20 -45t-48 -19zM342 851q-27 0 -46.5 18.5t-19.5 45.5t19.5 46t46.5 19q31 0 49 -20.5t18 -44.5q0 -26 -19.5 -45t-47.5 -19z" />
    <glyph glyph-name="uni022C" unicode="&#x22c;" 
d="M252 -12q-77 0 -128.5 38t-78 110t-26.5 175q0 101 26.5 172.5t78 110t128.5 38.5q76 0 127.5 -38.5t78 -110t26.5 -172.5q0 -103 -26.5 -175.5t-78 -110t-127.5 -37.5zM252 80q38 0 64.5 25.5t41 77t14.5 129.5q0 73 -14.5 124t-41 77.5t-64.5 26.5t-65 -26.5
t-41.5 -77.5t-14.5 -124q0 -78 14.5 -129.5t41.5 -77t65 -25.5zM343 834l57 -26q-18 -41 -40.5 -59t-48.5 -18q-21 0 -36.5 8t-28 18.5t-23 18.5t-22.5 8q-13 0 -23.5 -10.5t-17.5 -28.5l-57 26q14 36 39.5 57t50.5 21q20 0 36.5 -8t30.5 -19t25 -19t21 -8q11 0 19.5 8.5
t17.5 30.5zM103 877v76h280v-76h-280z" />
    <glyph glyph-name="OE" unicode="&#x152;" 
d="M177 -7q-39 0 -71.5 19t-55 58.5t-35 99.5t-12.5 142q0 106 20.5 177t60.5 107t96 36q13 0 29.5 -6t29.5 -17v15h254v-91h-155v-163h131v-91h-131v-188h153v-91h-253v16q-13 -10 -30 -16.5t-31 -6.5zM188 89q19 0 30.5 15t14.5 40v333q-6 26 -18.5 44t-34.5 18
q-15 0 -28 -11t-22 -37t-14.5 -69.5t-5.5 -108.5q0 -71 8.5 -121.5t25.5 -76.5t44 -26z" />
    <glyph glyph-name="P" unicode="P" 
d="M48 0v623h212q73 0 119.5 -25t69 -66t22.5 -92q0 -37 -12.5 -69.5t-38 -57t-64 -38.5t-91.5 -14h-102v-261h-115zM163 355h94q32 0 54 11t33 30t11 44t-11 44t-32.5 30t-53.5 11h-95v-170z" />
    <glyph glyph-name="Thorn" unicode="&#xde;" 
d="M50 0v623h122q1 -2 1.5 -2.5t0.5 -2.5q0 -3 -4 -7.5t-5 -20.5v-77h96q74 0 120.5 -25t68 -66.5t21.5 -92.5t-21 -92t-66.5 -65.5t-117.5 -24.5h-102v-147h-114zM164 238h94q35 0 57 11.5t32.5 32t10.5 44.5t-11 45t-33 35t-55 14h-94z" />
    <glyph glyph-name="Q" unicode="Q" 
d="M378 -146q-47 0 -80 6.5t-54.5 22.5t-31.5 43t-11 69q-54 12 -94.5 52t-63.5 107t-23 157q0 87 18.5 148.5t51 99.5t74 56t88.5 18q49 0 91.5 -19t74 -58t48.5 -100t16 -144q0 -74 -12 -129t-35 -93.5t-55.5 -61.5t-72.5 -33q2 -15 7 -27t17 -18t31 -6l82 4l-2 -94h-64z
M254 82q23 0 44.5 12.5t38 39t26.5 69t10 102.5q0 66 -10 111.5t-27.5 73t-38.5 39.5t-45 12q-29 0 -51 -15t-38 -44.5t-24 -69.5t-8 -91q0 -78 15 -131t43 -80.5t65 -27.5z" />
    <glyph glyph-name="R" unicode="R" 
d="M45 0v623h197q77 0 125.5 -22.5t71.5 -64t23 -96.5q0 -34 -14.5 -68t-40.5 -61t-62 -41l134 -270h-119l-126 259h-75v-259h-114zM159 353h91q48 0 72 22.5t24 61.5q0 25 -10.5 44.5t-32 31.5t-53.5 12h-91v-172z" />
    <glyph glyph-name="Racute" unicode="&#x154;" 
d="M45 0v623h197q77 0 125.5 -22.5t71.5 -64t23 -96.5q0 -34 -14.5 -68t-40.5 -61t-62 -41l134 -270h-119l-126 259h-75v-259h-114zM159 353h91q48 0 72 22.5t24 61.5q0 25 -10.5 44.5t-32 31.5t-53.5 12h-91v-172zM174 653l-28 54l163 95l44 -85z" />
    <glyph glyph-name="Rcaron" unicode="&#x158;" 
d="M45 0v623h197q77 0 125.5 -22.5t71.5 -64t23 -96.5q0 -34 -14.5 -68t-40.5 -61t-62 -41l134 -270h-119l-126 259h-75v-259h-114zM159 353h91q48 0 72 22.5t24 61.5q0 25 -10.5 44.5t-32 31.5t-53.5 12h-91v-172zM390 812l36 -55l-161 -96h-31l-158 94l38 57l135 -66z" />
    <glyph glyph-name="uni0156" unicode="&#x156;" 
d="M45 0v623h197q77 0 125.5 -22.5t71.5 -64t23 -96.5q0 -34 -14.5 -68t-40.5 -61t-62 -41l134 -270h-119l-126 259h-75v-259h-114zM159 353h91q48 0 72 22.5t24 61.5q0 25 -10.5 44.5t-32 31.5t-53.5 12h-91v-172zM232 -295l-55 46q25 23 38 46t13 38q0 13 -10 24.5
t-20.5 25.5t-10.5 35q0 30 21 46.5t48 16.5q35 0 55.5 -25.5t20.5 -65.5q0 -28 -10.5 -58t-33 -62t-56.5 -67z" />
    <glyph glyph-name="uni0210" unicode="&#x210;" 
d="M45 0v623h197q77 0 125.5 -22.5t71.5 -64t23 -96.5q0 -34 -14.5 -68t-40.5 -61t-62 -41l134 -270h-119l-126 259h-75v-259h-114zM159 353h91q48 0 72 22.5t24 61.5q0 25 -10.5 44.5t-32 31.5t-53.5 12h-91v-172zM185 664l-110 142l79 57l83 -166zM345 664l-110 142l79 57
l83 -166z" />
    <glyph glyph-name="uni1E5A" unicode="&#x1e5a;" 
d="M45 0v623h197q77 0 125.5 -22.5t71.5 -64t23 -96.5q0 -34 -14.5 -68t-40.5 -61t-62 -41l134 -270h-119l-126 259h-75v-259h-114zM159 353h91q48 0 72 22.5t24 61.5q0 25 -10.5 44.5t-32 31.5t-53.5 12h-91v-172zM248 -170q-29 0 -50 20t-21 48q0 30 20 49t51 19
q28 0 49.5 -20t21.5 -48t-21.5 -48t-49.5 -20z" />
    <glyph glyph-name="uni0212" unicode="&#x212;" 
d="M45 0v623h197q77 0 125.5 -22.5t71.5 -64t23 -96.5q0 -34 -14.5 -68t-40.5 -61t-62 -41l134 -270h-119l-126 259h-75v-259h-114zM159 353h91q48 0 72 22.5t24 61.5q0 25 -10.5 44.5t-32 31.5t-53.5 12h-91v-172zM171 680l-70 32q24 51 62.5 78.5t88.5 27.5t88.5 -27.5
t62.5 -78.5l-70 -32q-16 36 -35 54t-46 18q-18 0 -33 -7.5t-27 -23.5t-21 -41z" />
    <glyph glyph-name="uni1E5E" unicode="&#x1e5e;" 
d="M45 0v623h197q77 0 125.5 -22.5t71.5 -64t23 -96.5q0 -34 -14.5 -68t-40.5 -61t-62 -41l134 -270h-119l-126 259h-75v-259h-114zM159 353h91q48 0 72 22.5t24 61.5q0 25 -10.5 44.5t-32 31.5t-53.5 12h-91v-172zM110 -156v76h280v-76h-280z" />
    <glyph glyph-name="S" unicode="S" 
d="M242 -11q-62 0 -116.5 18.5t-90.5 56.5l55 93l4 8l9 -5q2 -7 5.5 -15t15.5 -19q25 -19 55.5 -30.5t66.5 -12.5q23 0 42.5 5t33.5 15t22 25.5t8 35.5q0 12 -3 23t-10.5 21.5t-21.5 21t-35 23t-53 26.5q-64 28 -101.5 57t-53.5 62t-16 75q0 46 25.5 82t70.5 57t103 21
q39 0 73 -9t63 -26.5t53 -44.5l-66 -76l-6 -7l-8 6q-1 8 -3.5 15.5t-13.5 19.5q-19 18 -40.5 24t-50.5 6q-21 0 -37 -5t-27.5 -14t-18 -20.5t-6.5 -23.5t3 -22.5t10.5 -20.5t22 -20.5t37.5 -22.5t57 -27q47 -22 79 -42.5t50.5 -43t26.5 -49t8 -59.5q0 -45 -23 -87t-72 -68.5
t-126 -26.5v0z" />
    <glyph glyph-name="Sacute" unicode="&#x15a;" 
d="M242 -11q-62 0 -116.5 18.5t-90.5 56.5l55 93l4 8l9 -5q2 -7 5.5 -15t15.5 -19q25 -19 55.5 -30.5t66.5 -12.5q23 0 42.5 5t33.5 15t22 25.5t8 35.5q0 12 -3 23t-10.5 21.5t-21.5 21t-35 23t-53 26.5q-64 28 -101.5 57t-53.5 62t-16 75q0 46 25.5 82t70.5 57t103 21
q39 0 73 -9t63 -26.5t53 -44.5l-66 -76l-6 -7l-8 6q-1 8 -3.5 15.5t-13.5 19.5q-19 18 -40.5 24t-50.5 6q-21 0 -37 -5t-27.5 -14t-18 -20.5t-6.5 -23.5t3 -22.5t10.5 -20.5t22 -20.5t37.5 -22.5t57 -27q47 -22 79 -42.5t50.5 -43t26.5 -49t8 -59.5q0 -45 -23 -87t-72 -68.5
t-126 -26.5v0zM179 653l-28 54l163 95l44 -85z" />
    <glyph glyph-name="uni1E64" unicode="&#x1e64;" 
d="M242 -11q-62 0 -116.5 18.5t-90.5 56.5l55 93l4 8l9 -5q2 -7 5.5 -15t15.5 -19q25 -19 55.5 -30.5t66.5 -12.5q23 0 42.5 5t33.5 15t22 25.5t8 35.5q0 12 -3 23t-10.5 21.5t-21.5 21t-35 23t-53 26.5q-64 28 -101.5 57t-53.5 62t-16 75q0 46 25.5 82t70.5 57t103 21
q39 0 73 -9t63 -26.5t53 -44.5l-66 -76l-6 -7l-8 6q-1 8 -3.5 15.5t-13.5 19.5q-19 18 -40.5 24t-50.5 6q-21 0 -37 -5t-27.5 -14t-18 -20.5t-6.5 -23.5t3 -22.5t10.5 -20.5t22 -20.5t37.5 -22.5t57 -27q47 -22 79 -42.5t50.5 -43t26.5 -49t8 -59.5q0 -45 -23 -87t-72 -68.5
t-126 -26.5v0zM179 653l-28 54l163 95l44 -85zM255 809q-29 0 -50 20t-21 48q0 30 20 49t51 19q28 0 49.5 -20t21.5 -48t-21.5 -48t-49.5 -20z" />
    <glyph glyph-name="Scaron" unicode="&#x160;" 
d="M242 -11q-62 0 -116.5 18.5t-90.5 56.5l55 93l4 8l9 -5q2 -7 5.5 -15t15.5 -19q25 -19 55.5 -30.5t66.5 -12.5q23 0 42.5 5t33.5 15t22 25.5t8 35.5q0 12 -3 23t-10.5 21.5t-21.5 21t-35 23t-53 26.5q-64 28 -101.5 57t-53.5 62t-16 75q0 46 25.5 82t70.5 57t103 21
q39 0 73 -9t63 -26.5t53 -44.5l-66 -76l-6 -7l-8 6q-1 8 -3.5 15.5t-13.5 19.5q-19 18 -40.5 24t-50.5 6q-21 0 -37 -5t-27.5 -14t-18 -20.5t-6.5 -23.5t3 -22.5t10.5 -20.5t22 -20.5t37.5 -22.5t57 -27q47 -22 79 -42.5t50.5 -43t26.5 -49t8 -59.5q0 -45 -23 -87t-72 -68.5
t-126 -26.5v0zM395 812l36 -55l-161 -96h-31l-158 94l38 57l135 -66z" />
    <glyph glyph-name="uni1E66" unicode="&#x1e66;" 
d="M242 -11q-62 0 -116.5 18.5t-90.5 56.5l55 93l4 8l9 -5q2 -7 5.5 -15t15.5 -19q25 -19 55.5 -30.5t66.5 -12.5q23 0 42.5 5t33.5 15t22 25.5t8 35.5q0 12 -3 23t-10.5 21.5t-21.5 21t-35 23t-53 26.5q-64 28 -101.5 57t-53.5 62t-16 75q0 46 25.5 82t70.5 57t103 21
q39 0 73 -9t63 -26.5t53 -44.5l-66 -76l-6 -7l-8 6q-1 8 -3.5 15.5t-13.5 19.5q-19 18 -40.5 24t-50.5 6q-21 0 -37 -5t-27.5 -14t-18 -20.5t-6.5 -23.5t3 -22.5t10.5 -20.5t22 -20.5t37.5 -22.5t57 -27q47 -22 79 -42.5t50.5 -43t26.5 -49t8 -59.5q0 -45 -23 -87t-72 -68.5
t-126 -26.5v0zM395 812l36 -55l-161 -96h-31l-158 94l38 57l135 -66zM255 827q-29 0 -50 20t-21 48q0 30 20 49t51 19q28 0 49.5 -20t21.5 -48t-21.5 -48t-49.5 -20z" />
    <glyph glyph-name="Scedilla" unicode="&#x15e;" 
d="M242 -11q-62 0 -116.5 18.5t-90.5 56.5l55 93l4 8l9 -5q2 -7 5.5 -15t15.5 -19q25 -19 55.5 -30.5t66.5 -12.5q23 0 42.5 5t33.5 15t22 25.5t8 35.5q0 12 -3 23t-10.5 21.5t-21.5 21t-35 23t-53 26.5q-64 28 -101.5 57t-53.5 62t-16 75q0 46 25.5 82t70.5 57t103 21
q39 0 73 -9t63 -26.5t53 -44.5l-66 -76l-6 -7l-8 6q-1 8 -3.5 15.5t-13.5 19.5q-19 18 -40.5 24t-50.5 6q-21 0 -37 -5t-27.5 -14t-18 -20.5t-6.5 -23.5t3 -22.5t10.5 -20.5t22 -20.5t37.5 -22.5t57 -27q47 -22 79 -42.5t50.5 -43t26.5 -49t8 -59.5q0 -45 -23 -87t-72 -68.5
t-126 -26.5v0zM253 -205q-31 0 -61.5 8t-62.5 33l37 66q26 -22 50 -30.5t49 -8.5q18 0 32 7t14 19q0 11 -13 16.5t-34 5.5h-49l12 89h80l-4 -31q25 -2 42.5 -12.5t26.5 -25.5t9 -33q0 -43 -34.5 -73t-93.5 -30z" />
    <glyph glyph-name="Scircumflex" unicode="&#x15c;" 
d="M242 -11q-62 0 -116.5 18.5t-90.5 56.5l55 93l4 8l9 -5q2 -7 5.5 -15t15.5 -19q25 -19 55.5 -30.5t66.5 -12.5q23 0 42.5 5t33.5 15t22 25.5t8 35.5q0 12 -3 23t-10.5 21.5t-21.5 21t-35 23t-53 26.5q-64 28 -101.5 57t-53.5 62t-16 75q0 46 25.5 82t70.5 57t103 21
q39 0 73 -9t63 -26.5t53 -44.5l-66 -76l-6 -7l-8 6q-1 8 -3.5 15.5t-13.5 19.5q-19 18 -40.5 24t-50.5 6q-21 0 -37 -5t-27.5 -14t-18 -20.5t-6.5 -23.5t3 -22.5t10.5 -20.5t22 -20.5t37.5 -22.5t57 -27q47 -22 79 -42.5t50.5 -43t26.5 -49t8 -59.5q0 -45 -23 -87t-72 -68.5
t-126 -26.5v0zM114 649l-36 55l161 96h31l158 -94l-38 -57l-135 66z" />
    <glyph glyph-name="uni0218" unicode="&#x218;" 
d="M242 -11q-62 0 -116.5 18.5t-90.5 56.5l55 93l4 8l9 -5q2 -7 5.5 -15t15.5 -19q25 -19 55.5 -30.5t66.5 -12.5q23 0 42.5 5t33.5 15t22 25.5t8 35.5q0 12 -3 23t-10.5 21.5t-21.5 21t-35 23t-53 26.5q-64 28 -101.5 57t-53.5 62t-16 75q0 46 25.5 82t70.5 57t103 21
q39 0 73 -9t63 -26.5t53 -44.5l-66 -76l-6 -7l-8 6q-1 8 -3.5 15.5t-13.5 19.5q-19 18 -40.5 24t-50.5 6q-21 0 -37 -5t-27.5 -14t-18 -20.5t-6.5 -23.5t3 -22.5t10.5 -20.5t22 -20.5t37.5 -22.5t57 -27q47 -22 79 -42.5t50.5 -43t26.5 -49t8 -59.5q0 -45 -23 -87t-72 -68.5
t-126 -26.5v0zM235 -295l-55 46q25 23 38 46t13 38q0 13 -10 24.5t-20.5 25.5t-10.5 35q0 30 21 46.5t48 16.5q35 0 55.5 -25.5t20.5 -65.5q0 -28 -10.5 -58t-33 -62t-56.5 -67z" />
    <glyph glyph-name="uni1E60" unicode="&#x1e60;" 
d="M242 -11q-62 0 -116.5 18.5t-90.5 56.5l55 93l4 8l9 -5q2 -7 5.5 -15t15.5 -19q25 -19 55.5 -30.5t66.5 -12.5q23 0 42.5 5t33.5 15t22 25.5t8 35.5q0 12 -3 23t-10.5 21.5t-21.5 21t-35 23t-53 26.5q-64 28 -101.5 57t-53.5 62t-16 75q0 46 25.5 82t70.5 57t103 21
q39 0 73 -9t63 -26.5t53 -44.5l-66 -76l-6 -7l-8 6q-1 8 -3.5 15.5t-13.5 19.5q-19 18 -40.5 24t-50.5 6q-21 0 -37 -5t-27.5 -14t-18 -20.5t-6.5 -23.5t3 -22.5t10.5 -20.5t22 -20.5t37.5 -22.5t57 -27q47 -22 79 -42.5t50.5 -43t26.5 -49t8 -59.5q0 -45 -23 -87t-72 -68.5
t-126 -26.5v0zM255 682q-29 0 -50 20t-21 48q0 30 20 49t51 19q28 0 49.5 -20t21.5 -48t-21.5 -48t-49.5 -20z" />
    <glyph glyph-name="uni1E62" unicode="&#x1e62;" 
d="M242 -11q-62 0 -116.5 18.5t-90.5 56.5l55 93l4 8l9 -5q2 -7 5.5 -15t15.5 -19q25 -19 55.5 -30.5t66.5 -12.5q23 0 42.5 5t33.5 15t22 25.5t8 35.5q0 12 -3 23t-10.5 21.5t-21.5 21t-35 23t-53 26.5q-64 28 -101.5 57t-53.5 62t-16 75q0 46 25.5 82t70.5 57t103 21
q39 0 73 -9t63 -26.5t53 -44.5l-66 -76l-6 -7l-8 6q-1 8 -3.5 15.5t-13.5 19.5q-19 18 -40.5 24t-50.5 6q-21 0 -37 -5t-27.5 -14t-18 -20.5t-6.5 -23.5t3 -22.5t10.5 -20.5t22 -20.5t37.5 -22.5t57 -27q47 -22 79 -42.5t50.5 -43t26.5 -49t8 -59.5q0 -45 -23 -87t-72 -68.5
t-126 -26.5v0zM251 -170q-29 0 -50 20t-21 48q0 30 20 49t51 19q28 0 49.5 -20t21.5 -48t-21.5 -48t-49.5 -20z" />
    <glyph glyph-name="uni1E68" unicode="&#x1e68;" 
d="M242 -11q-62 0 -116.5 18.5t-90.5 56.5l55 93l4 8l9 -5q2 -7 5.5 -15t15.5 -19q25 -19 55.5 -30.5t66.5 -12.5q23 0 42.5 5t33.5 15t22 25.5t8 35.5q0 12 -3 23t-10.5 21.5t-21.5 21t-35 23t-53 26.5q-64 28 -101.5 57t-53.5 62t-16 75q0 46 25.5 82t70.5 57t103 21
q39 0 73 -9t63 -26.5t53 -44.5l-66 -76l-6 -7l-8 6q-1 8 -3.5 15.5t-13.5 19.5q-19 18 -40.5 24t-50.5 6q-21 0 -37 -5t-27.5 -14t-18 -20.5t-6.5 -23.5t3 -22.5t10.5 -20.5t22 -20.5t37.5 -22.5t57 -27q47 -22 79 -42.5t50.5 -43t26.5 -49t8 -59.5q0 -45 -23 -87t-72 -68.5
t-126 -26.5v0zM251 -170q-29 0 -50 20t-21 48q0 30 20 49t51 19q28 0 49.5 -20t21.5 -48t-21.5 -48t-49.5 -20zM255 682q-29 0 -50 20t-21 48q0 30 20 49t51 19q28 0 49.5 -20t21.5 -48t-21.5 -48t-49.5 -20z" />
    <glyph glyph-name="uni1E9E" unicode="&#x1e9e;" 
d="M291 -13q-32 0 -58 8.5t-46 22.5l36 84q8 -7 16.5 -11.5t18 -7t20.5 -2.5q16 0 30.5 7.5t26 22t17.5 33.5t6 42q0 29 -11 55t-37.5 43t-71.5 17h-30v88l112 107q-2 26 -10 45.5t-24 30.5t-42 11q-17 0 -33 -7.5t-29 -22.5t-20.5 -37.5t-7.5 -53.5v-462h-113v447
q0 59 16 102t43.5 70t63.5 40.5t77 13.5q60 0 101 -26t62 -69t21 -95l-166 -155l-18 61q76 0 126 -27t75.5 -74t25.5 -106q0 -45 -13 -80.5t-36 -61.5t-55.5 -39.5t-72.5 -13.5z" />
    <glyph glyph-name="uni018F" unicode="&#x18f;" 
d="M252 -12q-77 0 -128.5 38t-78 110t-26.5 175q0 101 26.5 172.5t78 110t128.5 38.5q76 0 127.5 -38.5t78 -110t26.5 -172.5q0 -103 -26.5 -175.5t-78 -110t-127.5 -37.5zM252 80q38 0 64.5 25.5t41 77t14.5 129.5q0 73 -14.5 124t-41 77.5t-64.5 26.5t-65 -26.5
t-41.5 -77.5t-14.5 -124q0 -78 14.5 -129.5t41.5 -77t65 -25.5z" />
    <glyph glyph-name="T" unicode="T" 
d="M191 0v528h-168v95h453v-95h-177v-528h-108z" />
    <glyph glyph-name="Tbar" unicode="&#x166;" 
d="M191 0v528h-168v95h453v-95h-177v-528h-108zM71 278v72h346v-72h-346z" />
    <glyph glyph-name="Tcaron" unicode="&#x164;" 
d="M191 0v528h-168v95h453v-95h-177v-528h-108zM390 812l36 -55l-161 -96h-31l-158 94l38 57l135 -66z" />
    <glyph glyph-name="uni0162" unicode="&#x162;" 
d="M191 0v528h-168v95h453v-95h-177v-528h-108zM249 -205q-31 0 -61.5 8t-62.5 33l37 66q26 -22 50 -30.5t49 -8.5q18 0 32 7t14 19q0 11 -13 16.5t-34 5.5h-49l12 89h80l-4 -31q25 -2 42.5 -12.5t26.5 -25.5t9 -33q0 -43 -34.5 -73t-93.5 -30z" />
    <glyph glyph-name="uni021A" unicode="&#x21a;" 
d="M191 0v528h-168v95h453v-95h-177v-528h-108zM232 -295l-55 46q25 23 38 46t13 38q0 13 -10 24.5t-20.5 25.5t-10.5 35q0 30 21 46.5t48 16.5q35 0 55.5 -25.5t20.5 -65.5q0 -28 -10.5 -58t-33 -62t-56.5 -67z" />
    <glyph glyph-name="uni1E6C" unicode="&#x1e6c;" 
d="M191 0v528h-168v95h453v-95h-177v-528h-108zM248 -170q-29 0 -50 20t-21 48q0 30 20 49t51 19q28 0 49.5 -20t21.5 -48t-21.5 -48t-49.5 -20z" />
    <glyph glyph-name="uni1E6E" unicode="&#x1e6e;" 
d="M191 0v528h-168v95h453v-95h-177v-528h-108zM110 -156v76h280v-76h-280z" />
    <glyph glyph-name="U" unicode="U" 
d="M250 -13q-103 0 -158.5 61.5t-55.5 169.5v405h112h9v-9q-5 -6 -6.5 -13t-1.5 -24v-360q0 -64 22.5 -101t79.5 -37q58 0 81 37.5t23 103.5v403h110v-402q0 -80 -27 -132t-75.5 -77t-112.5 -25v0z" />
    <glyph glyph-name="Uacute" unicode="&#xda;" 
d="M250 -13q-103 0 -158.5 61.5t-55.5 169.5v405h112h9v-9q-5 -6 -6.5 -13t-1.5 -24v-360q0 -64 22.5 -101t79.5 -37q58 0 81 37.5t23 103.5v403h110v-402q0 -80 -27 -132t-75.5 -77t-112.5 -25v0zM174 653l-28 54l163 95l44 -85z" />
    <glyph glyph-name="Ubreve" unicode="&#x16c;" 
d="M250 -13q-103 0 -158.5 61.5t-55.5 169.5v405h112h9v-9q-5 -6 -6.5 -13t-1.5 -24v-360q0 -64 22.5 -101t79.5 -37q58 0 81 37.5t23 103.5v403h110v-402q0 -80 -27 -132t-75.5 -77t-112.5 -25v0zM331 802l70 -32q-24 -51 -62.5 -78.5t-88.5 -27.5t-88.5 27.5t-62.5 78.5
l70 32q16 -36 35 -54t46 -18q18 0 33 7.5t27 24t21 40.5z" />
    <glyph glyph-name="Ucircumflex" unicode="&#xdb;" 
d="M250 -13q-103 0 -158.5 61.5t-55.5 169.5v405h112h9v-9q-5 -6 -6.5 -13t-1.5 -24v-360q0 -64 22.5 -101t79.5 -37q58 0 81 37.5t23 103.5v403h110v-402q0 -80 -27 -132t-75.5 -77t-112.5 -25v0zM110 649l-36 55l161 96h31l158 -94l-38 -57l-135 66z" />
    <glyph glyph-name="uni0214" unicode="&#x214;" 
d="M250 -13q-103 0 -158.5 61.5t-55.5 169.5v405h112h9v-9q-5 -6 -6.5 -13t-1.5 -24v-360q0 -64 22.5 -101t79.5 -37q58 0 81 37.5t23 103.5v403h110v-402q0 -80 -27 -132t-75.5 -77t-112.5 -25v0zM185 664l-110 142l79 57l83 -166zM345 664l-110 142l79 57l83 -166z" />
    <glyph glyph-name="Udieresis" unicode="&#xdc;" 
d="M250 -13q-103 0 -158.5 61.5t-55.5 169.5v405h112h9v-9q-5 -6 -6.5 -13t-1.5 -24v-360q0 -64 22.5 -101t79.5 -37q58 0 81 37.5t23 103.5v403h110v-402q0 -80 -27 -132t-75.5 -77t-112.5 -25v0zM157 683q-27 0 -47 19t-20 45t20 45.5t47 19.5q30 0 49 -20t19 -45
q0 -26 -20 -45t-48 -19zM341 683q-27 0 -46.5 18.5t-19.5 45.5t19.5 46t46.5 19q31 0 49 -20.5t18 -44.5q0 -26 -19.5 -45t-47.5 -19z" />
    <glyph glyph-name="uni1EE4" unicode="&#x1ee4;" 
d="M250 -13q-103 0 -158.5 61.5t-55.5 169.5v405h112h9v-9q-5 -6 -6.5 -13t-1.5 -24v-360q0 -64 22.5 -101t79.5 -37q58 0 81 37.5t23 103.5v403h110v-402q0 -80 -27 -132t-75.5 -77t-112.5 -25v0zM248 -170q-29 0 -50 20t-21 48q0 30 20 49t51 19q28 0 49.5 -20t21.5 -48
t-21.5 -48t-49.5 -20z" />
    <glyph glyph-name="Ugrave" unicode="&#xd9;" 
d="M250 -13q-103 0 -158.5 61.5t-55.5 169.5v405h112h9v-9q-5 -6 -6.5 -13t-1.5 -24v-360q0 -64 22.5 -101t79.5 -37q58 0 81 37.5t23 103.5v403h110v-402q0 -80 -27 -132t-75.5 -77t-112.5 -25v0zM313 654l-180 63l47 86l162 -96z" />
    <glyph glyph-name="uni1EE6" unicode="&#x1ee6;" 
d="M250 -13q-103 0 -158.5 61.5t-55.5 169.5v405h112h9v-9q-5 -6 -6.5 -13t-1.5 -24v-360q0 -64 22.5 -101t79.5 -37q58 0 81 37.5t23 103.5v403h110v-402q0 -80 -27 -132t-75.5 -77t-112.5 -25v0zM362 801q0 -21 -10 -36t-23.5 -26.5t-24 -23.5t-10.5 -28v-8h-70v28
q0 16 9.5 28t22 22t22 20t9.5 19q0 14 -9 21.5t-23 7.5q-19 0 -33 -7.5t-23 -29.5l-41 54q19 24 47 35t55 11q31 -1 54 -12t35.5 -30t12.5 -45z" />
    <glyph glyph-name="Uhorn" unicode="&#x1af;" 
d="M225 -13q-93 0 -143 61.5t-50 169.5v405h101h8v-9q-4 -6 -5.5 -13t-1.5 -24v-360q0 -64 20 -101t72 -37q53 0 73 37.5t20 103.5v403h100v-402q0 -80 -24.5 -132t-68 -77t-101.5 -25v0zM409 550l-10 73q14 0 20 9.5t7.5 30t1.5 54.5h70q0 -52 -6 -89.5t-24.5 -57.5
t-58.5 -20z" />
    <glyph glyph-name="uni1EE8" unicode="&#x1ee8;" 
d="M225 -13q-93 0 -143 61.5t-50 169.5v405h101h8v-9q-4 -6 -5.5 -13t-1.5 -24v-360q0 -64 20 -101t72 -37q53 0 73 37.5t20 103.5v403h100v-402q0 -80 -24.5 -132t-68 -77t-101.5 -25v0zM409 550l-10 73q14 0 20 9.5t7.5 30t1.5 54.5h70q0 -52 -6 -89.5t-24.5 -57.5
t-58.5 -20zM152 653l-28 54l163 95l44 -85z" />
    <glyph glyph-name="uni1EF0" unicode="&#x1ef0;" 
d="M225 -13q-93 0 -143 61.5t-50 169.5v405h101h8v-9q-4 -6 -5.5 -13t-1.5 -24v-360q0 -64 20 -101t72 -37q53 0 73 37.5t20 103.5v403h100v-402q0 -80 -24.5 -132t-68 -77t-101.5 -25v0zM409 550l-10 73q14 0 20 9.5t7.5 30t1.5 54.5h70q0 -52 -6 -89.5t-24.5 -57.5
t-58.5 -20zM224 -170q-29 0 -50 20t-21 48q0 30 20 49t51 19q28 0 49.5 -20t21.5 -48t-21.5 -48t-49.5 -20z" />
    <glyph glyph-name="uni1EEA" unicode="&#x1eea;" 
d="M225 -13q-93 0 -143 61.5t-50 169.5v405h101h8v-9q-4 -6 -5.5 -13t-1.5 -24v-360q0 -64 20 -101t72 -37q53 0 73 37.5t20 103.5v403h100v-402q0 -80 -24.5 -132t-68 -77t-101.5 -25v0zM409 550l-10 73q14 0 20 9.5t7.5 30t1.5 54.5h70q0 -52 -6 -89.5t-24.5 -57.5
t-58.5 -20zM290 654l-180 63l47 86l162 -96z" />
    <glyph glyph-name="uni1EEC" unicode="&#x1eec;" 
d="M225 -13q-93 0 -143 61.5t-50 169.5v405h101h8v-9q-4 -6 -5.5 -13t-1.5 -24v-360q0 -64 20 -101t72 -37q53 0 73 37.5t20 103.5v403h100v-402q0 -80 -24.5 -132t-68 -77t-101.5 -25v0zM409 550l-10 73q14 0 20 9.5t7.5 30t1.5 54.5h70q0 -52 -6 -89.5t-24.5 -57.5
t-58.5 -20zM340 801q0 -21 -10 -36t-23.5 -26.5t-24 -23.5t-10.5 -28v-8h-70v28q0 16 9.5 28t22 22t22 20t9.5 19q0 14 -9 21.5t-23 7.5q-19 0 -33 -7.5t-23 -29.5l-41 54q19 24 47 35t55 11q31 -1 54 -12t35.5 -30t12.5 -45z" />
    <glyph glyph-name="uni1EEE" unicode="&#x1eee;" 
d="M225 -13q-93 0 -143 61.5t-50 169.5v405h101h8v-9q-4 -6 -5.5 -13t-1.5 -24v-360q0 -64 20 -101t72 -37q53 0 73 37.5t20 103.5v403h100v-402q0 -80 -24.5 -132t-68 -77t-101.5 -25v0zM409 550l-10 73q14 0 20 9.5t7.5 30t1.5 54.5h70q0 -52 -6 -89.5t-24.5 -57.5
t-58.5 -20zM338 788l60 -31q-20 -43 -44 -61.5t-54 -18.5q-29 0 -48 9.5t-33 22t-25.5 21.5t-25.5 9q-17 0 -29.5 -12.5t-23.5 -36.5l-62 29q17 43 44 65t67 22q26 0 44 -9t31.5 -21t26 -21t27.5 -9q17 0 26 10.5t19 31.5z" />
    <glyph glyph-name="Uhungarumlaut" unicode="&#x170;" 
d="M250 -13q-103 0 -158.5 61.5t-55.5 169.5v405h112h9v-9q-5 -6 -6.5 -13t-1.5 -24v-360q0 -64 22.5 -101t79.5 -37q58 0 81 37.5t23 103.5v403h110v-402q0 -80 -27 -132t-75.5 -77t-112.5 -25v0zM277 641l-38 48l138 125l55 -71zM98 641l-38 48l138 125l55 -71z" />
    <glyph glyph-name="uni0216" unicode="&#x216;" 
d="M250 -13q-103 0 -158.5 61.5t-55.5 169.5v405h112h9v-9q-5 -6 -6.5 -13t-1.5 -24v-360q0 -64 22.5 -101t79.5 -37q58 0 81 37.5t23 103.5v403h110v-402q0 -80 -27 -132t-75.5 -77t-112.5 -25v0zM171 680l-70 32q24 51 62.5 78.5t88.5 27.5t88.5 -27.5t62.5 -78.5l-70 -32
q-16 36 -35 54t-46 18q-18 0 -33 -7.5t-27 -23.5t-21 -41z" />
    <glyph glyph-name="Umacron" unicode="&#x16a;" 
d="M250 -13q-103 0 -158.5 61.5t-55.5 169.5v405h112h9v-9q-5 -6 -6.5 -13t-1.5 -24v-360q0 -64 22.5 -101t79.5 -37q58 0 81 37.5t23 103.5v403h110v-402q0 -80 -27 -132t-75.5 -77t-112.5 -25v0zM109 724v76h280v-76h-280z" />
    <glyph glyph-name="uni1E7A" unicode="&#x1e7a;" 
d="M250 -13q-103 0 -158.5 61.5t-55.5 169.5v405h112h9v-9q-5 -6 -6.5 -13t-1.5 -24v-360q0 -64 22.5 -101t79.5 -37q58 0 81 37.5t23 103.5v403h110v-402q0 -80 -27 -132t-75.5 -77t-112.5 -25v0zM109 724v76h280v-76h-280zM157 832q-27 0 -47 19t-20 45t20 45.5t47 19.5
q30 0 49 -20t19 -45q0 -26 -20 -45t-48 -19zM341 832q-27 0 -46.5 18.5t-19.5 45.5t19.5 46t46.5 19q31 0 49 -20.5t18 -44.5q0 -26 -19.5 -45t-47.5 -19z" />
    <glyph glyph-name="Uogonek" unicode="&#x172;" 
d="M250 -13q-103 0 -158.5 61.5t-55.5 169.5v405h112h9v-9q-5 -6 -6.5 -13t-1.5 -24v-360q0 -64 22.5 -101t79.5 -37q58 0 81 37.5t23 103.5v403h110v-402q0 -80 -27 -132t-75.5 -77t-112.5 -25v0zM358 -140l-45 -88q-45 12 -74 29t-43.5 38.5t-14.5 44.5q0 25 16 51.5
t46.5 52.5t75.5 49l40 -27q-21 -18 -36.5 -35.5t-23.5 -32.5t-8 -28q0 -19 17 -32.5t50 -21.5z" />
    <glyph glyph-name="Uring" unicode="&#x16e;" 
d="M250 -13q-103 0 -158.5 61.5t-55.5 169.5v405h112h9v-9q-5 -6 -6.5 -13t-1.5 -24v-360q0 -64 22.5 -101t79.5 -37q58 0 81 37.5t23 103.5v403h110v-402q0 -80 -27 -132t-75.5 -77t-112.5 -25v0zM248 616q-28 0 -52 13.5t-38 36.5t-14 50t14.5 49.5t38 36t51.5 13.5
q29 0 52.5 -13.5t38 -36t14.5 -49.5t-14.5 -50t-38 -36.5t-52.5 -13.5zM249 680q13 0 22.5 10.5t9.5 26.5t-9.5 27t-22.5 11q-14 0 -23.5 -11t-9.5 -27t10 -26.5t23 -10.5z" />
    <glyph glyph-name="Utilde" unicode="&#x168;" 
d="M250 -13q-103 0 -158.5 61.5t-55.5 169.5v405h112h9v-9q-5 -6 -6.5 -13t-1.5 -24v-360q0 -64 22.5 -101t79.5 -37q58 0 81 37.5t23 103.5v403h110v-402q0 -80 -27 -132t-75.5 -77t-112.5 -25v0zM361 788l60 -31q-20 -43 -44 -61.5t-54 -18.5q-29 0 -48 9.5t-33 22
t-25.5 21.5t-25.5 9q-17 0 -29.5 -12.5t-23.5 -36.5l-62 29q17 43 44 65t67 22q26 0 44 -9t31.5 -21t26 -21t27.5 -9q17 0 26 10.5t19 31.5z" />
    <glyph glyph-name="uni1E78" unicode="&#x1e78;" 
d="M250 -13q-103 0 -158.5 61.5t-55.5 169.5v405h112h9v-9q-5 -6 -6.5 -13t-1.5 -24v-360q0 -64 22.5 -101t79.5 -37q58 0 81 37.5t23 103.5v403h110v-402q0 -80 -27 -132t-75.5 -77t-112.5 -25v0zM361 788l60 -31q-20 -43 -44 -61.5t-54 -18.5q-29 0 -48 9.5t-33 22
t-25.5 21.5t-25.5 9q-17 0 -29.5 -12.5t-23.5 -36.5l-62 29q17 43 44 65t67 22q26 0 44 -9t31.5 -21t26 -21t27.5 -9q17 0 26 10.5t19 31.5zM174 818l-28 54l163 95l44 -85z" />
    <glyph glyph-name="V" unicode="V" 
d="M216 -2l-200 625h112l131 -438l122 438h109l-198 -625h-76z" />
    <glyph glyph-name="W" unicode="W" 
d="M92 0l-82 623h98l42 -391l80 342h60l80 -341l33 390h92l-81 -623h-71l-88 384l-90 -384h-73z" />
    <glyph glyph-name="Wacute" unicode="&#x1e82;" 
d="M92 0l-82 623h98l42 -391l80 342h60l80 -341l33 390h92l-81 -623h-71l-88 384l-90 -384h-73zM181 653l-28 54l163 95l44 -85z" />
    <glyph glyph-name="Wcircumflex" unicode="&#x174;" 
d="M92 0l-82 623h98l42 -391l80 342h60l80 -341l33 390h92l-81 -623h-71l-88 384l-90 -384h-73zM117 649l-36 55l161 96h31l158 -94l-38 -57l-135 66z" />
    <glyph glyph-name="Wdieresis" unicode="&#x1e84;" 
d="M92 0l-82 623h98l42 -391l80 342h60l80 -341l33 390h92l-81 -623h-71l-88 384l-90 -384h-73zM164 683q-27 0 -47 19t-20 45t20 45.5t47 19.5q30 0 49 -20t19 -45q0 -26 -20 -45t-48 -19zM348 683q-27 0 -46.5 18.5t-19.5 45.5t19.5 46t46.5 19q31 0 49 -20.5t18 -44.5
q0 -26 -19.5 -45t-47.5 -19z" />
    <glyph glyph-name="Wgrave" unicode="&#x1e80;" 
d="M92 0l-82 623h98l42 -391l80 342h60l80 -341l33 390h92l-81 -623h-71l-88 384l-90 -384h-73zM320 654l-180 63l47 86l162 -96z" />
    <glyph glyph-name="X" unicode="X" 
d="M29 0l163 318l-161 305h116l105 -205l102 205h110l-150 -304l170 -319h-120l-111 215l-108 -215h-116z" />
    <glyph glyph-name="Y" unicode="Y" 
d="M203 0v246l-186 377h116l129 -260l114 260h111l-171 -378v-245h-113z" />
    <glyph glyph-name="Yacute" unicode="&#xdd;" 
d="M203 0v246l-186 377h116l129 -260l114 260h111l-171 -378v-245h-113zM174 653l-28 54l163 95l44 -85z" />
    <glyph glyph-name="Ycircumflex" unicode="&#x176;" 
d="M203 0v246l-186 377h116l129 -260l114 260h111l-171 -378v-245h-113zM110 649l-36 55l161 96h31l158 -94l-38 -57l-135 66z" />
    <glyph glyph-name="Ydieresis" unicode="&#x178;" 
d="M203 0v246l-186 377h116l129 -260l114 260h111l-171 -378v-245h-113zM157 683q-27 0 -47 19t-20 45t20 45.5t47 19.5q30 0 49 -20t19 -45q0 -26 -20 -45t-48 -19zM341 683q-27 0 -46.5 18.5t-19.5 45.5t19.5 46t46.5 19q31 0 49 -20.5t18 -44.5q0 -26 -19.5 -45
t-47.5 -19z" />
    <glyph glyph-name="uni1E8E" unicode="&#x1e8e;" 
d="M203 0v246l-186 377h116l129 -260l114 260h111l-171 -378v-245h-113zM251 682q-29 0 -50 20t-21 48q0 30 20 49t51 19q28 0 49.5 -20t21.5 -48t-21.5 -48t-49.5 -20z" />
    <glyph glyph-name="uni1EF4" unicode="&#x1ef4;" 
d="M203 0v246l-186 377h116l129 -260l114 260h111l-171 -378v-245h-113zM258 -170q-29 0 -50 20t-21 48q0 30 20 49t51 19q28 0 49.5 -20t21.5 -48t-21.5 -48t-49.5 -20z" />
    <glyph glyph-name="Ygrave" unicode="&#x1ef2;" 
d="M203 0v246l-186 377h116l129 -260l114 260h111l-171 -378v-245h-113zM313 654l-180 63l47 86l162 -96z" />
    <glyph glyph-name="uni1EF6" unicode="&#x1ef6;" 
d="M203 0v246l-186 377h116l129 -260l114 260h111l-171 -378v-245h-113zM362 801q0 -21 -10 -36t-23.5 -26.5t-24 -23.5t-10.5 -28v-8h-70v28q0 16 9.5 28t22 22t22 20t9.5 19q0 14 -9 21.5t-23 7.5q-19 0 -33 -7.5t-23 -29.5l-41 54q19 24 47 35t55 11q31 -1 54 -12
t35.5 -30t12.5 -45z" />
    <glyph glyph-name="uni0232" unicode="&#x232;" 
d="M203 0v246l-186 377h116l129 -260l114 260h111l-171 -378v-245h-113zM109 724v76h280v-76h-280z" />
    <glyph glyph-name="uni1EF8" unicode="&#x1ef8;" 
d="M203 0v246l-186 377h116l129 -260l114 260h111l-171 -378v-245h-113zM361 788l60 -31q-20 -43 -44 -61.5t-54 -18.5q-29 0 -48 9.5t-33 22t-25.5 21.5t-25.5 9q-17 0 -29.5 -12.5t-23.5 -36.5l-62 29q17 43 44 65t67 22q26 0 44 -9t31.5 -21t26 -21t27.5 -9q17 0 26 10.5
t19 31.5z" />
    <glyph glyph-name="Z" unicode="Z" 
d="M39 72l288 456h-277v95h411v-72l-283 -457h252q17 0 24 2t13 8h10v-10v-94h-438v72z" />
    <glyph glyph-name="Zacute" unicode="&#x179;" 
d="M39 72l288 456h-277v95h411v-72l-283 -457h252q17 0 24 2t13 8h10v-10v-94h-438v72zM184 653l-28 54l163 95l44 -85z" />
    <glyph glyph-name="Zcaron" unicode="&#x17d;" 
d="M39 72l288 456h-277v95h411v-72l-283 -457h252q17 0 24 2t13 8h10v-10v-94h-438v72zM400 812l36 -55l-161 -96h-31l-158 94l38 57l135 -66z" />
    <glyph glyph-name="Zdotaccent" unicode="&#x17b;" 
d="M39 72l288 456h-277v95h411v-72l-283 -457h252q17 0 24 2t13 8h10v-10v-94h-438v72zM261 682q-29 0 -50 20t-21 48q0 30 20 49t51 19q28 0 49.5 -20t21.5 -48t-21.5 -48t-49.5 -20z" />
    <glyph glyph-name="uni1E92" unicode="&#x1e92;" 
d="M39 72l288 456h-277v95h411v-72l-283 -457h252q17 0 24 2t13 8h10v-10v-94h-438v72zM265 -170q-29 0 -50 20t-21 48q0 30 20 49t51 19q28 0 49.5 -20t21.5 -48t-21.5 -48t-49.5 -20z" />
    <glyph glyph-name="U.i" 
d="M225 -13q-93 0 -143 61.5t-50 169.5v405h101h8v-9q-4 -6 -5.5 -13t-1.5 -24v-360q0 -64 20 -101t72 -37q53 0 73 37.5t20 103.5v403h100v-402q0 -80 -24.5 -132t-68 -77t-101.5 -25v0z" />
    <glyph glyph-name="a" unicode="a" 
d="M198 -12q-77 0 -119.5 36.5t-42.5 94.5q0 37 16.5 68.5t49.5 54.5t82 35.5t112 12.5h20t26 -0.5t26 -2.5l3 -78q-10 1 -24 1.5t-28.5 1t-24.5 0.5q-40 0 -67.5 -6t-44.5 -16.5t-25 -25t-8 -31.5q0 -16 5.5 -27t15 -17.5t22.5 -9.5t28 -3q30 0 52.5 9.5t38 30.5t23 52.5
t7.5 74.5q0 58 -12 89t-35 43.5t-58 12.5q-32 0 -60.5 -10.5t-55.5 -38.5l-62 68q39 37 87 53t96 16q44 0 82 -10t66.5 -33.5t45 -64t16.5 -100.5v-268h-117v50q-13 -17 -28 -29t-32 -19t-36 -10.5t-40 -3.5z" />
    <glyph glyph-name="aacute" unicode="&#xe1;" 
d="M198 -12q-77 0 -119.5 36.5t-42.5 94.5q0 37 16.5 68.5t49.5 54.5t82 35.5t112 12.5h20t26 -0.5t26 -2.5l3 -78q-10 1 -24 1.5t-28.5 1t-24.5 0.5q-40 0 -67.5 -6t-44.5 -16.5t-25 -25t-8 -31.5q0 -16 5.5 -27t15 -17.5t22.5 -9.5t28 -3q30 0 52.5 9.5t38 30.5t23 52.5
t7.5 74.5q0 58 -12 89t-35 43.5t-58 12.5q-32 0 -60.5 -10.5t-55.5 -38.5l-62 68q39 37 87 53t96 16q44 0 82 -10t66.5 -33.5t45 -64t16.5 -100.5v-268h-117v50q-13 -17 -28 -29t-32 -19t-36 -10.5t-40 -3.5zM228 504l-52 33l83 166l79 -57z" />
    <glyph glyph-name="abreve" unicode="&#x103;" 
d="M198 -12q-77 0 -119.5 36.5t-42.5 94.5q0 37 16.5 68.5t49.5 54.5t82 35.5t112 12.5h20t26 -0.5t26 -2.5l3 -78q-10 1 -24 1.5t-28.5 1t-24.5 0.5q-40 0 -67.5 -6t-44.5 -16.5t-25 -25t-8 -31.5q0 -16 5.5 -27t15 -17.5t22.5 -9.5t28 -3q30 0 52.5 9.5t38 30.5t23 52.5
t7.5 74.5q0 58 -12 89t-35 43.5t-58 12.5q-32 0 -60.5 -10.5t-55.5 -38.5l-62 68q39 37 87 53t96 16q44 0 82 -10t66.5 -33.5t45 -64t16.5 -100.5v-268h-117v50q-13 -17 -28 -29t-32 -19t-36 -10.5t-40 -3.5zM325 668l70 -32q-24 -51 -62.5 -78.5t-88.5 -27.5t-88.5 27.5
t-62.5 78.5l70 32q16 -36 35 -54t46 -18q18 0 33 7.5t27 24t21 40.5z" />
    <glyph glyph-name="uni1EAF" unicode="&#x1eaf;" 
d="M198 -12q-77 0 -119.5 36.5t-42.5 94.5q0 37 16.5 68.5t49.5 54.5t82 35.5t112 12.5h20t26 -0.5t26 -2.5l3 -78q-10 1 -24 1.5t-28.5 1t-24.5 0.5q-40 0 -67.5 -6t-44.5 -16.5t-25 -25t-8 -31.5q0 -16 5.5 -27t15 -17.5t22.5 -9.5t28 -3q30 0 52.5 9.5t38 30.5t23 52.5
t7.5 74.5q0 58 -12 89t-35 43.5t-58 12.5q-32 0 -60.5 -10.5t-55.5 -38.5l-62 68q39 37 87 53t96 16q44 0 82 -10t66.5 -33.5t45 -64t16.5 -100.5v-268h-117v50q-13 -17 -28 -29t-32 -19t-36 -10.5t-40 -3.5zM325 668l70 -32q-24 -51 -62.5 -78.5t-88.5 -27.5t-88.5 27.5
t-62.5 78.5l70 32q16 -36 35 -54t46 -18q18 0 33 7.5t27 24t21 40.5zM250 635l-52 33l83 166l79 -57z" />
    <glyph glyph-name="uni1EB7" unicode="&#x1eb7;" 
d="M198 -12q-77 0 -119.5 36.5t-42.5 94.5q0 37 16.5 68.5t49.5 54.5t82 35.5t112 12.5h20t26 -0.5t26 -2.5l3 -78q-10 1 -24 1.5t-28.5 1t-24.5 0.5q-40 0 -67.5 -6t-44.5 -16.5t-25 -25t-8 -31.5q0 -16 5.5 -27t15 -17.5t22.5 -9.5t28 -3q30 0 52.5 9.5t38 30.5t23 52.5
t7.5 74.5q0 58 -12 89t-35 43.5t-58 12.5q-32 0 -60.5 -10.5t-55.5 -38.5l-62 68q39 37 87 53t96 16q44 0 82 -10t66.5 -33.5t45 -64t16.5 -100.5v-268h-117v50q-13 -17 -28 -29t-32 -19t-36 -10.5t-40 -3.5zM248 -170q-29 0 -50 20t-21 48q0 30 20 49t51 19q28 0 49.5 -20
t21.5 -48t-21.5 -48t-49.5 -20zM325 668l70 -32q-24 -51 -62.5 -78.5t-88.5 -27.5t-88.5 27.5t-62.5 78.5l70 32q16 -36 35 -54t46 -18q18 0 33 7.5t27 24t21 40.5z" />
    <glyph glyph-name="uni1EB1" unicode="&#x1eb1;" 
d="M198 -12q-77 0 -119.5 36.5t-42.5 94.5q0 37 16.5 68.5t49.5 54.5t82 35.5t112 12.5h20t26 -0.5t26 -2.5l3 -78q-10 1 -24 1.5t-28.5 1t-24.5 0.5q-40 0 -67.5 -6t-44.5 -16.5t-25 -25t-8 -31.5q0 -16 5.5 -27t15 -17.5t22.5 -9.5t28 -3q30 0 52.5 9.5t38 30.5t23 52.5
t7.5 74.5q0 58 -12 89t-35 43.5t-58 12.5q-32 0 -60.5 -10.5t-55.5 -38.5l-62 68q39 37 87 53t96 16q44 0 82 -10t66.5 -33.5t45 -64t16.5 -100.5v-268h-117v50q-13 -17 -28 -29t-32 -19t-36 -10.5t-40 -3.5zM325 668l70 -32q-24 -51 -62.5 -78.5t-88.5 -27.5t-88.5 27.5
t-62.5 78.5l70 32q16 -36 35 -54t46 -18q18 0 33 7.5t27 24t21 40.5zM247 635l-110 142l79 57l83 -166z" />
    <glyph glyph-name="uni1EB3" unicode="&#x1eb3;" 
d="M198 -12q-77 0 -119.5 36.5t-42.5 94.5q0 37 16.5 68.5t49.5 54.5t82 35.5t112 12.5h20t26 -0.5t26 -2.5l3 -78q-10 1 -24 1.5t-28.5 1t-24.5 0.5q-40 0 -67.5 -6t-44.5 -16.5t-25 -25t-8 -31.5q0 -16 5.5 -27t15 -17.5t22.5 -9.5t28 -3q30 0 52.5 9.5t38 30.5t23 52.5
t7.5 74.5q0 58 -12 89t-35 43.5t-58 12.5q-32 0 -60.5 -10.5t-55.5 -38.5l-62 68q39 37 87 53t96 16q44 0 82 -10t66.5 -33.5t45 -64t16.5 -100.5v-268h-117v50q-13 -17 -28 -29t-32 -19t-36 -10.5t-40 -3.5zM325 668l70 -32q-24 -51 -62.5 -78.5t-88.5 -27.5t-88.5 27.5
t-62.5 78.5l70 32q16 -36 35 -54t46 -18q18 0 33 7.5t27 24t21 40.5zM354 795q0 -21 -10 -36t-23.5 -26.5t-24 -23.5t-10.5 -28v-8h-70v28q0 16 9.5 28t22 22t22 20t9.5 19q0 14 -9 21.5t-23 7.5q-19 0 -33 -7.5t-23 -29.5l-41 54q19 24 47 35t55 11q31 -1 54 -12t35.5 -30
t12.5 -45z" />
    <glyph glyph-name="uni1EB5" unicode="&#x1eb5;" 
d="M198 -12q-77 0 -119.5 36.5t-42.5 94.5q0 37 16.5 68.5t49.5 54.5t82 35.5t112 12.5h20t26 -0.5t26 -2.5l3 -78q-10 1 -24 1.5t-28.5 1t-24.5 0.5q-40 0 -67.5 -6t-44.5 -16.5t-25 -25t-8 -31.5q0 -16 5.5 -27t15 -17.5t22.5 -9.5t28 -3q30 0 52.5 9.5t38 30.5t23 52.5
t7.5 74.5q0 58 -12 89t-35 43.5t-58 12.5q-32 0 -60.5 -10.5t-55.5 -38.5l-62 68q39 37 87 53t96 16q44 0 82 -10t66.5 -33.5t45 -64t16.5 -100.5v-268h-117v50q-13 -17 -28 -29t-32 -19t-36 -10.5t-40 -3.5zM321 668l70 -32q-24 -51 -62.5 -78.5t-88.5 -27.5t-88.5 27.5
t-62.5 78.5l70 32q16 -36 35 -54t46 -18q18 0 33 7.5t27 24t21 40.5zM334 809l57 -26q-18 -41 -40.5 -59t-48.5 -18q-21 0 -36.5 8t-28 18.5t-23 18.5t-22.5 8q-13 0 -23.5 -10.5t-17.5 -28.5l-57 26q14 36 39.5 57t50.5 21q20 0 36.5 -8t30.5 -19t25 -19t21 -8
q11 0 19.5 8.5t17.5 30.5z" />
    <glyph glyph-name="acircumflex" unicode="&#xe2;" 
d="M198 -12q-77 0 -119.5 36.5t-42.5 94.5q0 37 16.5 68.5t49.5 54.5t82 35.5t112 12.5h20t26 -0.5t26 -2.5l3 -78q-10 1 -24 1.5t-28.5 1t-24.5 0.5q-40 0 -67.5 -6t-44.5 -16.5t-25 -25t-8 -31.5q0 -16 5.5 -27t15 -17.5t22.5 -9.5t28 -3q30 0 52.5 9.5t38 30.5t23 52.5
t7.5 74.5q0 58 -12 89t-35 43.5t-58 12.5q-32 0 -60.5 -10.5t-55.5 -38.5l-62 68q39 37 87 53t96 16q44 0 82 -10t66.5 -33.5t45 -64t16.5 -100.5v-268h-117v50q-13 -17 -28 -29t-32 -19t-36 -10.5t-40 -3.5zM132 499l-53 48l145 139h38l145 -139l-53 -48l-112 103z" />
    <glyph glyph-name="uni1EA5" unicode="&#x1ea5;" 
d="M198 -12q-77 0 -119.5 36.5t-42.5 94.5q0 37 16.5 68.5t49.5 54.5t82 35.5t112 12.5h20t26 -0.5t26 -2.5l3 -78q-10 1 -24 1.5t-28.5 1t-24.5 0.5q-40 0 -67.5 -6t-44.5 -16.5t-25 -25t-8 -31.5q0 -16 5.5 -27t15 -17.5t22.5 -9.5t28 -3q30 0 52.5 9.5t38 30.5t23 52.5
t7.5 74.5q0 58 -12 89t-35 43.5t-58 12.5q-32 0 -60.5 -10.5t-55.5 -38.5l-62 68q39 37 87 53t96 16q44 0 82 -10t66.5 -33.5t45 -64t16.5 -100.5v-268h-117v50q-13 -17 -28 -29t-32 -19t-36 -10.5t-40 -3.5zM132 501l-53 48l145 139h38l145 -139l-53 -48l-112 103zM387 629
l-52 33l83 166l79 -57z" />
    <glyph glyph-name="uni1EAD" unicode="&#x1ead;" 
d="M198 -12q-77 0 -119.5 36.5t-42.5 94.5q0 37 16.5 68.5t49.5 54.5t82 35.5t112 12.5h20t26 -0.5t26 -2.5l3 -78q-10 1 -24 1.5t-28.5 1t-24.5 0.5q-40 0 -67.5 -6t-44.5 -16.5t-25 -25t-8 -31.5q0 -16 5.5 -27t15 -17.5t22.5 -9.5t28 -3q30 0 52.5 9.5t38 30.5t23 52.5
t7.5 74.5q0 58 -12 89t-35 43.5t-58 12.5q-32 0 -60.5 -10.5t-55.5 -38.5l-62 68q39 37 87 53t96 16q44 0 82 -10t66.5 -33.5t45 -64t16.5 -100.5v-268h-117v50q-13 -17 -28 -29t-32 -19t-36 -10.5t-40 -3.5zM248 -170q-29 0 -50 20t-21 48q0 30 20 49t51 19q28 0 49.5 -20
t21.5 -48t-21.5 -48t-49.5 -20zM132 499l-53 48l145 139h38l145 -139l-53 -48l-112 103z" />
    <glyph glyph-name="uni1EA7" unicode="&#x1ea7;" 
d="M198 -12q-77 0 -119.5 36.5t-42.5 94.5q0 37 16.5 68.5t49.5 54.5t82 35.5t112 12.5h20t26 -0.5t26 -2.5l3 -78q-10 1 -24 1.5t-28.5 1t-24.5 0.5q-40 0 -67.5 -6t-44.5 -16.5t-25 -25t-8 -31.5q0 -16 5.5 -27t15 -17.5t22.5 -9.5t28 -3q30 0 52.5 9.5t38 30.5t23 52.5
t7.5 74.5q0 58 -12 89t-35 43.5t-58 12.5q-32 0 -60.5 -10.5t-55.5 -38.5l-62 68q39 37 87 53t96 16q44 0 82 -10t66.5 -33.5t45 -64t16.5 -100.5v-268h-117v50q-13 -17 -28 -29t-32 -19t-36 -10.5t-40 -3.5zM133 501l-53 48l145 139h38l145 -139l-53 -48l-112 103zM368 653
l-110 142l79 57l83 -166z" />
    <glyph glyph-name="uni1EA9" unicode="&#x1ea9;" 
d="M198 -12q-77 0 -119.5 36.5t-42.5 94.5q0 37 16.5 68.5t49.5 54.5t82 35.5t112 12.5h20t26 -0.5t26 -2.5l3 -78q-10 1 -24 1.5t-28.5 1t-24.5 0.5q-40 0 -67.5 -6t-44.5 -16.5t-25 -25t-8 -31.5q0 -16 5.5 -27t15 -17.5t22.5 -9.5t28 -3q30 0 52.5 9.5t38 30.5t23 52.5
t7.5 74.5q0 58 -12 89t-35 43.5t-58 12.5q-32 0 -60.5 -10.5t-55.5 -38.5l-62 68q39 37 87 53t96 16q44 0 82 -10t66.5 -33.5t45 -64t16.5 -100.5v-268h-117v50q-13 -17 -28 -29t-32 -19t-36 -10.5t-40 -3.5zM132 501l-53 48l145 139h38l145 -139l-53 -48l-112 103zM486 750
q0 -21 -10 -36t-23.5 -26.5t-24 -23.5t-10.5 -28v-8h-70v28q0 16 9.5 28t22 22t22 20t9.5 19q0 14 -9 21.5t-23 7.5q-19 0 -33 -7.5t-23 -29.5l-41 54q19 24 47 35t55 11q31 -1 54 -12t35.5 -30t12.5 -45z" />
    <glyph glyph-name="uni1EAB" unicode="&#x1eab;" 
d="M198 -12q-77 0 -119.5 36.5t-42.5 94.5q0 37 16.5 68.5t49.5 54.5t82 35.5t112 12.5h20t26 -0.5t26 -2.5l3 -78q-10 1 -24 1.5t-28.5 1t-24.5 0.5q-40 0 -67.5 -6t-44.5 -16.5t-25 -25t-8 -31.5q0 -16 5.5 -27t15 -17.5t22.5 -9.5t28 -3q30 0 52.5 9.5t38 30.5t23 52.5
t7.5 74.5q0 58 -12 89t-35 43.5t-58 12.5q-32 0 -60.5 -10.5t-55.5 -38.5l-62 68q39 37 87 53t96 16q44 0 82 -10t66.5 -33.5t45 -64t16.5 -100.5v-268h-117v50q-13 -17 -28 -29t-32 -19t-36 -10.5t-40 -3.5zM132 501l-53 48l145 139h38l145 -139l-53 -48l-112 103zM323 824
l57 -26q-18 -41 -40.5 -59t-48.5 -18q-21 0 -36.5 8t-28 18.5t-23 18.5t-22.5 8q-13 0 -23.5 -10.5t-17.5 -28.5l-57 26q14 36 39.5 57t50.5 21q20 0 36.5 -8t30.5 -19t25 -19t21 -8q11 0 19.5 8.5t17.5 30.5z" />
    <glyph glyph-name="uni0201" unicode="&#x201;" 
d="M198 -12q-77 0 -119.5 36.5t-42.5 94.5q0 37 16.5 68.5t49.5 54.5t82 35.5t112 12.5h20t26 -0.5t26 -2.5l3 -78q-10 1 -24 1.5t-28.5 1t-24.5 0.5q-40 0 -67.5 -6t-44.5 -16.5t-25 -25t-8 -31.5q0 -16 5.5 -27t15 -17.5t22.5 -9.5t28 -3q30 0 52.5 9.5t38 30.5t23 52.5
t7.5 74.5q0 58 -12 89t-35 43.5t-58 12.5q-32 0 -60.5 -10.5t-55.5 -38.5l-62 68q39 37 87 53t96 16q44 0 82 -10t66.5 -33.5t45 -64t16.5 -100.5v-268h-117v50q-13 -17 -28 -29t-32 -19t-36 -10.5t-40 -3.5zM179 504l-110 142l79 57l83 -166zM339 504l-110 142l79 57
l83 -166z" />
    <glyph glyph-name="adieresis" unicode="&#xe4;" 
d="M198 -12q-77 0 -119.5 36.5t-42.5 94.5q0 37 16.5 68.5t49.5 54.5t82 35.5t112 12.5h20t26 -0.5t26 -2.5l3 -78q-10 1 -24 1.5t-28.5 1t-24.5 0.5q-40 0 -67.5 -6t-44.5 -16.5t-25 -25t-8 -31.5q0 -16 5.5 -27t15 -17.5t22.5 -9.5t28 -3q30 0 52.5 9.5t38 30.5t23 52.5
t7.5 74.5q0 58 -12 89t-35 43.5t-58 12.5q-32 0 -60.5 -10.5t-55.5 -38.5l-62 68q39 37 87 53t96 16q44 0 82 -10t66.5 -33.5t45 -64t16.5 -100.5v-268h-117v50q-13 -17 -28 -29t-32 -19t-36 -10.5t-40 -3.5zM152 548q-27 0 -47 19t-20 45t20 45.5t47 19.5q30 0 49 -20
t19 -45q0 -26 -20 -45t-48 -19zM336 548q-27 0 -46.5 18.5t-19.5 45.5t19.5 46t46.5 19q31 0 49 -20.5t18 -44.5q0 -26 -19.5 -45t-47.5 -19z" />
    <glyph glyph-name="uni1EA1" unicode="&#x1ea1;" 
d="M198 -12q-77 0 -119.5 36.5t-42.5 94.5q0 37 16.5 68.5t49.5 54.5t82 35.5t112 12.5h20t26 -0.5t26 -2.5l3 -78q-10 1 -24 1.5t-28.5 1t-24.5 0.5q-40 0 -67.5 -6t-44.5 -16.5t-25 -25t-8 -31.5q0 -16 5.5 -27t15 -17.5t22.5 -9.5t28 -3q30 0 52.5 9.5t38 30.5t23 52.5
t7.5 74.5q0 58 -12 89t-35 43.5t-58 12.5q-32 0 -60.5 -10.5t-55.5 -38.5l-62 68q39 37 87 53t96 16q44 0 82 -10t66.5 -33.5t45 -64t16.5 -100.5v-268h-117v50q-13 -17 -28 -29t-32 -19t-36 -10.5t-40 -3.5zM248 -170q-29 0 -50 20t-21 48q0 30 20 49t51 19q28 0 49.5 -20
t21.5 -48t-21.5 -48t-49.5 -20z" />
    <glyph glyph-name="agrave" unicode="&#xe0;" 
d="M198 -12q-77 0 -119.5 36.5t-42.5 94.5q0 37 16.5 68.5t49.5 54.5t82 35.5t112 12.5h20t26 -0.5t26 -2.5l3 -78q-10 1 -24 1.5t-28.5 1t-24.5 0.5q-40 0 -67.5 -6t-44.5 -16.5t-25 -25t-8 -31.5q0 -16 5.5 -27t15 -17.5t22.5 -9.5t28 -3q30 0 52.5 9.5t38 30.5t23 52.5
t7.5 74.5q0 58 -12 89t-35 43.5t-58 12.5q-32 0 -60.5 -10.5t-55.5 -38.5l-62 68q39 37 87 53t96 16q44 0 82 -10t66.5 -33.5t45 -64t16.5 -100.5v-268h-117v50q-13 -17 -28 -29t-32 -19t-36 -10.5t-40 -3.5zM237 504l-110 142l79 57l83 -166z" />
    <glyph glyph-name="uni1EA3" unicode="&#x1ea3;" 
d="M198 -12q-77 0 -119.5 36.5t-42.5 94.5q0 37 16.5 68.5t49.5 54.5t82 35.5t112 12.5h20t26 -0.5t26 -2.5l3 -78q-10 1 -24 1.5t-28.5 1t-24.5 0.5q-40 0 -67.5 -6t-44.5 -16.5t-25 -25t-8 -31.5q0 -16 5.5 -27t15 -17.5t22.5 -9.5t28 -3q30 0 52.5 9.5t38 30.5t23 52.5
t7.5 74.5q0 58 -12 89t-35 43.5t-58 12.5q-32 0 -60.5 -10.5t-55.5 -38.5l-62 68q39 37 87 53t96 16q44 0 82 -10t66.5 -33.5t45 -64t16.5 -100.5v-268h-117v50q-13 -17 -28 -29t-32 -19t-36 -10.5t-40 -3.5zM356 641q0 -21 -10 -36t-23.5 -26.5t-24 -23.5t-10.5 -28v-8h-70
v28q0 16 9.5 28t22 22t22 20t9.5 19q0 14 -9 21.5t-23 7.5q-19 0 -33 -7.5t-23 -29.5l-41 54q19 24 47 35t55 11q31 -1 54 -12t35.5 -30t12.5 -45z" />
    <glyph glyph-name="uni0203" unicode="&#x203;" 
d="M198 -12q-77 0 -119.5 36.5t-42.5 94.5q0 37 16.5 68.5t49.5 54.5t82 35.5t112 12.5h20t26 -0.5t26 -2.5l3 -78q-10 1 -24 1.5t-28.5 1t-24.5 0.5q-40 0 -67.5 -6t-44.5 -16.5t-25 -25t-8 -31.5q0 -16 5.5 -27t15 -17.5t22.5 -9.5t28 -3q30 0 52.5 9.5t38 30.5t23 52.5
t7.5 74.5q0 58 -12 89t-35 43.5t-58 12.5q-32 0 -60.5 -10.5t-55.5 -38.5l-62 68q39 37 87 53t96 16q44 0 82 -10t66.5 -33.5t45 -64t16.5 -100.5v-268h-117v50q-13 -17 -28 -29t-32 -19t-36 -10.5t-40 -3.5zM165 520l-70 32q24 51 62.5 78.5t88.5 27.5t88.5 -27.5
t62.5 -78.5l-70 -32q-16 36 -35 54t-46 18q-18 0 -33 -7.5t-27 -23.5t-21 -41z" />
    <glyph glyph-name="amacron" unicode="&#x101;" 
d="M198 -12q-77 0 -119.5 36.5t-42.5 94.5q0 37 16.5 68.5t49.5 54.5t82 35.5t112 12.5h20t26 -0.5t26 -2.5l3 -78q-10 1 -24 1.5t-28.5 1t-24.5 0.5q-40 0 -67.5 -6t-44.5 -16.5t-25 -25t-8 -31.5q0 -16 5.5 -27t15 -17.5t22.5 -9.5t28 -3q30 0 52.5 9.5t38 30.5t23 52.5
t7.5 74.5q0 58 -12 89t-35 43.5t-58 12.5q-32 0 -60.5 -10.5t-55.5 -38.5l-62 68q39 37 87 53t96 16q44 0 82 -10t66.5 -33.5t45 -64t16.5 -100.5v-268h-117v50q-13 -17 -28 -29t-32 -19t-36 -10.5t-40 -3.5zM103 564v76h280v-76h-280z" />
    <glyph glyph-name="aogonek" unicode="&#x105;" 
d="M198 -12q-77 0 -119.5 36.5t-42.5 94.5q0 37 16.5 68.5t49.5 54.5t82 35.5t112 12.5h20t26 -0.5t26 -2.5l3 -78q-10 1 -24 1.5t-28.5 1t-24.5 0.5q-40 0 -67.5 -6t-44.5 -16.5t-25 -25t-8 -31.5q0 -16 5.5 -27t15 -17.5t22.5 -9.5t28 -3q30 0 52.5 9.5t38 30.5t23 52.5
t7.5 74.5q0 58 -12 89t-35 43.5t-58 12.5q-32 0 -60.5 -10.5t-55.5 -38.5l-62 68q39 37 87 53t96 16q44 0 82 -10t66.5 -33.5t45 -64t16.5 -100.5v-268h-117v50q-13 -17 -28 -29t-32 -19t-36 -10.5t-40 -3.5zM392 -150l-45 -88q-45 12 -74 29t-43.5 38.5t-14.5 44.5
q0 25 16 51.5t46.5 52.5t75.5 49l40 -27q-21 -18 -36.5 -35.5t-23.5 -32.5t-8 -28q0 -19 17 -32.5t50 -21.5z" />
    <glyph glyph-name="aring" unicode="&#xe5;" 
d="M198 -12q-77 0 -119.5 36.5t-42.5 94.5q0 37 16.5 68.5t49.5 54.5t82 35.5t112 12.5h20t26 -0.5t26 -2.5l3 -78q-10 1 -24 1.5t-28.5 1t-24.5 0.5q-40 0 -67.5 -6t-44.5 -16.5t-25 -25t-8 -31.5q0 -16 5.5 -27t15 -17.5t22.5 -9.5t28 -3q30 0 52.5 9.5t38 30.5t23 52.5
t7.5 74.5q0 58 -12 89t-35 43.5t-58 12.5q-32 0 -60.5 -10.5t-55.5 -38.5l-62 68q39 37 87 53t96 16q44 0 82 -10t66.5 -33.5t45 -64t16.5 -100.5v-268h-117v50q-13 -17 -28 -29t-32 -19t-36 -10.5t-40 -3.5zM240 512q-28 0 -51.5 13.5t-37.5 36.5t-14 50t14 49.5t37.5 36
t51.5 13.5t52 -13.5t38.5 -35.5t14.5 -50q0 -27 -14.5 -50t-38 -36.5t-52.5 -13.5zM241 576q13 0 22.5 10.5t9.5 26.5t-9.5 27t-22.5 11t-22.5 -11t-9.5 -27t9.5 -26.5t22.5 -10.5z" />
    <glyph glyph-name="aringacute" unicode="&#x1fb;" 
d="M198 -12q-77 0 -119.5 36.5t-42.5 94.5q0 37 16.5 68.5t49.5 54.5t82 35.5t112 12.5h20t26 -0.5t26 -2.5l3 -78q-10 1 -24 1.5t-28.5 1t-24.5 0.5q-40 0 -67.5 -6t-44.5 -16.5t-25 -25t-8 -31.5q0 -16 5.5 -27t15 -17.5t22.5 -9.5t28 -3q30 0 52.5 9.5t38 30.5t23 52.5
t7.5 74.5q0 58 -12 89t-35 43.5t-58 12.5q-32 0 -60.5 -10.5t-55.5 -38.5l-62 68q39 37 87 53t96 16q44 0 82 -10t66.5 -33.5t45 -64t16.5 -100.5v-268h-117v50q-13 -17 -28 -29t-32 -19t-36 -10.5t-40 -3.5zM240 512q-28 0 -51.5 13.5t-37.5 36.5t-14 50t14 49.5t37.5 36
t51.5 13.5t52 -13.5t38.5 -35.5t14.5 -50q0 -27 -14.5 -50t-38 -36.5t-52.5 -13.5zM241 576q13 0 22.5 10.5t9.5 26.5t-9.5 27t-22.5 11t-22.5 -11t-9.5 -27t9.5 -26.5t22.5 -10.5zM228 745l-52 33l83 166l79 -57z" />
    <glyph glyph-name="atilde" unicode="&#xe3;" 
d="M198 -12q-77 0 -119.5 36.5t-42.5 94.5q0 37 16.5 68.5t49.5 54.5t82 35.5t112 12.5h20t26 -0.5t26 -2.5l3 -78q-10 1 -24 1.5t-28.5 1t-24.5 0.5q-40 0 -67.5 -6t-44.5 -16.5t-25 -25t-8 -31.5q0 -16 5.5 -27t15 -17.5t22.5 -9.5t28 -3q30 0 52.5 9.5t38 30.5t23 52.5
t7.5 74.5q0 58 -12 89t-35 43.5t-58 12.5q-32 0 -60.5 -10.5t-55.5 -38.5l-62 68q39 37 87 53t96 16q44 0 82 -10t66.5 -33.5t45 -64t16.5 -100.5v-268h-117v50q-13 -17 -28 -29t-32 -19t-36 -10.5t-40 -3.5zM354 668l60 -31q-20 -43 -44 -61.5t-54 -18.5q-29 0 -48 9.5
t-33 22t-25.5 21.5t-25.5 9q-17 0 -29.5 -12.5t-23.5 -36.5l-62 29q17 43 44 65t67 22q26 0 44 -9t31.5 -21t26 -21t27.5 -9q17 0 26 10.5t19 31.5z" />
    <glyph glyph-name="ae" unicode="&#xe6;" 
d="M146 -12q-39 0 -71.5 16t-52.5 48t-20 77q0 35 14 64.5t41 51t64 33.5t83 14q0 32 -8.5 54.5t-23 35t-32.5 12.5t-37 -12.5t-33 -34.5l-53 64q26 33 60 49t74 16q22 0 43.5 -8t38.5 -21t26 -28q11 16 25.5 28.5t32.5 20.5t36 8q50 0 81 -25.5t45.5 -71.5t14.5 -108v-46
l-198 -9v-38q0 -24 5.5 -43.5t16 -34.5t25 -22.5t32.5 -7.5q14 0 27 4.5t25 15t22 25.5l51 -62q-26 -31 -59.5 -48t-70.5 -17q-23 0 -43.5 7t-38.5 21t-32 33q-11 -18 -28.5 -32t-38.5 -21.5t-43 -7.5zM151 73q21 0 33 13.5t17.5 44t5.5 81.5q-40 -1 -63.5 -13t-34 -30
t-10.5 -40q0 -19 5.5 -31.5t17.5 -18.5t29 -6zM296 295l118 3q0 32 -7.5 53t-20 32t-30.5 11q-17 0 -30.5 -12.5t-21.5 -34.5t-8 -52z" />
    <glyph glyph-name="aeacute" unicode="&#x1fd;" 
d="M146 -12q-39 0 -71.5 16t-52.5 48t-20 77q0 35 14 64.5t41 51t64 33.5t83 14q0 32 -8.5 54.5t-23 35t-32.5 12.5t-37 -12.5t-33 -34.5l-53 64q26 33 60 49t74 16q22 0 43.5 -8t38.5 -21t26 -28q11 16 25.5 28.5t32.5 20.5t36 8q50 0 81 -25.5t45.5 -71.5t14.5 -108v-46
l-198 -9v-38q0 -24 5.5 -43.5t16 -34.5t25 -22.5t32.5 -7.5q14 0 27 4.5t25 15t22 25.5l51 -62q-26 -31 -59.5 -48t-70.5 -17q-23 0 -43.5 7t-38.5 21t-32 33q-11 -18 -28.5 -32t-38.5 -21.5t-43 -7.5zM151 73q21 0 33 13.5t17.5 44t5.5 81.5q-40 -1 -63.5 -13t-34 -30
t-10.5 -40q0 -19 5.5 -31.5t17.5 -18.5t29 -6zM296 295l118 3q0 32 -7.5 53t-20 32t-30.5 11q-17 0 -30.5 -12.5t-21.5 -34.5t-8 -52zM256 504l-52 33l83 166l79 -57z" />
    <glyph glyph-name="b" unicode="b" 
d="M279 -12q-25 0 -48 7t-42.5 21.5t-35.5 34.5l-19 -51h-86v671h113h10v-9q-6 -6 -7.5 -13t-1.5 -24v-212q11 14 24 26t29 20.5t33.5 12.5t35.5 4q43 0 77.5 -15t59 -44.5t38 -73.5t13.5 -103q0 -64 -15.5 -111.5t-42.5 -78.5t-61.5 -46.5t-73.5 -15.5v0zM256 76
q21 0 40 8.5t33 26.5t22 47.5t8 71.5q0 38 -7 68t-20 50.5t-31.5 31.5t-42.5 11q-29 0 -50.5 -18.5t-32.5 -53.5t-12 -84q0 -38 5.5 -67.5t17 -50t29 -31t41.5 -10.5v0z" />
    <glyph glyph-name="uni0298" unicode="&#x298;" 
d="M252 -12q-77 0 -128.5 38t-78 110t-26.5 175q0 101 26.5 172.5t78 110t128.5 38.5q76 0 127.5 -38.5t78 -110t26.5 -172.5q0 -103 -26.5 -175.5t-78 -110t-127.5 -37.5zM252 80q38 0 64.5 25.5t41 77t14.5 129.5q0 73 -14.5 124t-41 77.5t-64.5 26.5t-65 -26.5
t-41.5 -77.5t-14.5 -124q0 -78 14.5 -129.5t41.5 -77t65 -25.5zM252 262q-23 0 -39 15.5t-16 37.5q0 23 15.5 38t39.5 15q22 0 38.5 -15.5t16.5 -37.5t-16.5 -37.5t-38.5 -15.5z" />
    <glyph glyph-name="c" unicode="c" 
d="M278 -12q-51 0 -94.5 18t-76 50t-50.5 76t-18 97q0 51 18 96t50.5 78.5t76 53t95.5 19.5q64 0 112 -24t76 -66l-63 -69l-6 -7l-8 6q0 8 -2 16.5t-13 20.5q-19 19 -42 25.5t-53 6.5q-25 0 -47.5 -10.5t-40.5 -30t-28 -48.5t-10 -67q0 -34 10.5 -61.5t28 -47t41 -30
t49.5 -10.5q21 0 41 6t39.5 18.5t36.5 33.5l63 -72q-37 -41 -86 -59.5t-99 -18.5v0z" />
    <glyph glyph-name="cacute" unicode="&#x107;" 
d="M278 -12q-51 0 -94.5 18t-76 50t-50.5 76t-18 97q0 51 18 96t50.5 78.5t76 53t95.5 19.5q64 0 112 -24t76 -66l-63 -69l-6 -7l-8 6q0 8 -2 16.5t-13 20.5q-19 19 -42 25.5t-53 6.5q-25 0 -47.5 -10.5t-40.5 -30t-28 -48.5t-10 -67q0 -34 10.5 -61.5t28 -47t41 -30
t49.5 -10.5q21 0 41 6t39.5 18.5t36.5 33.5l63 -72q-37 -41 -86 -59.5t-99 -18.5v0zM260 504l-52 33l83 166l79 -57z" />
    <glyph glyph-name="ccaron" unicode="&#x10d;" 
d="M278 -12q-51 0 -94.5 18t-76 50t-50.5 76t-18 97q0 51 18 96t50.5 78.5t76 53t95.5 19.5q64 0 112 -24t76 -66l-63 -69l-6 -7l-8 6q0 8 -2 16.5t-13 20.5q-19 19 -42 25.5t-53 6.5q-25 0 -47.5 -10.5t-40.5 -30t-28 -48.5t-10 -67q0 -34 10.5 -61.5t28 -47t41 -30
t49.5 -10.5q21 0 41 6t39.5 18.5t36.5 33.5l63 -72q-37 -41 -86 -59.5t-99 -18.5v0zM162 704l110 -103l112 103l53 -49l-145 -139h-38l-145 139z" />
    <glyph glyph-name="ccedilla" unicode="&#xe7;" 
d="M278 -12q-51 0 -94.5 18t-76 50t-50.5 76t-18 97q0 51 18 96t50.5 78.5t76 53t95.5 19.5q64 0 112 -24t76 -66l-63 -69l-6 -7l-8 6q0 8 -2 16.5t-13 20.5q-19 19 -42 25.5t-53 6.5q-25 0 -47.5 -10.5t-40.5 -30t-28 -48.5t-10 -67q0 -34 10.5 -61.5t28 -47t41 -30
t49.5 -10.5q21 0 41 6t39.5 18.5t36.5 33.5l63 -72q-37 -41 -86 -59.5t-99 -18.5v0zM275 -205q-31 0 -61.5 8t-62.5 33l37 66q26 -22 50 -30.5t49 -8.5q18 0 32 7t14 19q0 11 -13 16.5t-34 5.5h-49l12 89h80l-4 -31q25 -2 42.5 -12.5t26.5 -25.5t9 -33q0 -43 -34.5 -73
t-93.5 -30z" />
    <glyph glyph-name="uni1E09" unicode="&#x1e09;" 
d="M278 -12q-51 0 -94.5 18t-76 50t-50.5 76t-18 97q0 51 18 96t50.5 78.5t76 53t95.5 19.5q64 0 112 -24t76 -66l-63 -69l-6 -7l-8 6q0 8 -2 16.5t-13 20.5q-19 19 -42 25.5t-53 6.5q-25 0 -47.5 -10.5t-40.5 -30t-28 -48.5t-10 -67q0 -34 10.5 -61.5t28 -47t41 -30
t49.5 -10.5q21 0 41 6t39.5 18.5t36.5 33.5l63 -72q-37 -41 -86 -59.5t-99 -18.5v0zM275 -205q-31 0 -61.5 8t-62.5 33l37 66q26 -22 50 -30.5t49 -8.5q18 0 32 7t14 19q0 11 -13 16.5t-34 5.5h-49l12 89h80l-4 -31q25 -2 42.5 -12.5t26.5 -25.5t9 -33q0 -43 -34.5 -73
t-93.5 -30zM260 504l-52 33l83 166l79 -57z" />
    <glyph glyph-name="ccircumflex" unicode="&#x109;" 
d="M278 -12q-51 0 -94.5 18t-76 50t-50.5 76t-18 97q0 51 18 96t50.5 78.5t76 53t95.5 19.5q64 0 112 -24t76 -66l-63 -69l-6 -7l-8 6q0 8 -2 16.5t-13 20.5q-19 19 -42 25.5t-53 6.5q-25 0 -47.5 -10.5t-40.5 -30t-28 -48.5t-10 -67q0 -34 10.5 -61.5t28 -47t41 -30
t49.5 -10.5q21 0 41 6t39.5 18.5t36.5 33.5l63 -72q-37 -41 -86 -59.5t-99 -18.5v0zM164 499l-53 48l145 139h38l145 -139l-53 -48l-112 103z" />
    <glyph glyph-name="cdotaccent" unicode="&#x10b;" 
d="M278 -12q-51 0 -94.5 18t-76 50t-50.5 76t-18 97q0 51 18 96t50.5 78.5t76 53t95.5 19.5q64 0 112 -24t76 -66l-63 -69l-6 -7l-8 6q0 8 -2 16.5t-13 20.5q-19 19 -42 25.5t-53 6.5q-25 0 -47.5 -10.5t-40.5 -30t-28 -48.5t-10 -67q0 -34 10.5 -61.5t28 -47t41 -30
t49.5 -10.5q21 0 41 6t39.5 18.5t36.5 33.5l63 -72q-37 -41 -86 -59.5t-99 -18.5v0zM276 542q-29 0 -50 20t-21 48q0 30 20 49t51 19q28 0 49.5 -20t21.5 -48t-21.5 -48t-49.5 -20z" />
    <glyph glyph-name="d" unicode="d" 
d="M226 -11q-39 0 -73.5 15t-61.5 46t-42.5 77t-15.5 108q0 60 15 105.5t41.5 76t61.5 45.5t76 15q23 0 44.5 -6t39 -17.5t28.5 -31.5v249h111h10v-9q-6 -6 -7.5 -13t-1.5 -24l-1 -563q0 -16 2 -31t9 -31h-111q-5 11 -7 18t-2.5 14.5t-0.5 18.5q-12 -21 -30 -35t-39 -20.5
t-45 -6.5v0zM245 80q23 0 40.5 9.5t29 28.5t17 48.5t5.5 67.5q0 52 -10 86.5t-31 51.5t-54 17q-23 0 -42 -10.5t-31 -30.5t-18.5 -48t-6.5 -63q0 -49 13.5 -84t36.5 -54t51 -19v0z" />
    <glyph glyph-name="eth" unicode="&#xf0;" 
d="M255 -14q-47 0 -87.5 16.5t-70.5 47.5t-46 74t-16 96q0 52 15.5 97.5t42 80t62 53.5t76.5 19q21 0 39 -4t33.5 -12.5t27.5 -21.5q-12 28 -29.5 55t-38.5 46l-111 -31l-26 73l75 20q-13 11 -26.5 21t-29 19t-34.5 16l116 28q21 -13 39.5 -24.5t37.5 -28.5l113 32l26 -71
l-73 -24q23 -29 41.5 -63.5t31.5 -74t20 -83.5t7 -90q0 -60 -14.5 -109t-41.5 -84t-66.5 -54t-92.5 -19zM257 77q20 0 38 9.5t31.5 29t21.5 47.5t8 66q0 31 -5.5 55t-15.5 41.5t-23 29t-27.5 17t-29.5 5.5q-19 0 -37.5 -9.5t-33.5 -28t-24 -46.5t-9 -64q0 -34 8.5 -62
t23.5 -48t34 -31t40 -11z" />
    <glyph glyph-name="dcaron" unicode="&#x10f;" 
d="M175 -11q-30 0 -57 13t-48 42t-33 76t-12 114q0 66 11 112.5t31.5 75t48 42t60.5 13.5q30 0 53.5 -13t35.5 -45v250h98h9v-9q-5 -6 -7 -13t-1 -24l-1 -558q0 -17 1 -32.5t7 -32.5h-96q-4 10 -6 17t-3 15t-1 18q-9 -19 -23.5 -33t-31 -21t-35.5 -7v0zM194 77q24 0 39 17.5
t23 52t8 86.5q0 55 -7.5 90t-23 52t-39.5 17q-17 0 -30.5 -9t-22.5 -27.5t-14 -47.5t-5 -69q0 -42 6 -72.5t16 -50.5t23 -29.5t27 -9.5v0zM433 668q26 0 41.5 -17t15.5 -46q0 -24 -7.5 -48.5t-22 -50t-32.5 -53.5l-51 34q11 14 19.5 25.5t13 23t4.5 22.5q0 10 -8 16.5
t-16.5 17.5t-8.5 30t15 32.5t37 13.5z" />
    <glyph glyph-name="dcroat" unicode="&#x111;" 
d="M226 -11q-39 0 -73.5 15t-61.5 46t-42.5 77t-15.5 108q0 60 15 105.5t41.5 76t61.5 45.5t76 15q23 0 44.5 -6t39 -17.5t28.5 -31.5v249h111h10v-9q-6 -6 -7.5 -13t-1.5 -24l-1 -563q0 -16 2 -31t9 -31h-111q-5 11 -7 18t-2.5 14.5t-0.5 18.5q-12 -21 -30 -35t-39 -20.5
t-45 -6.5v0zM245 80q23 0 40.5 9.5t29 28.5t17 48.5t5.5 67.5q0 52 -10 86.5t-31 51.5t-54 17q-23 0 -42 -10.5t-31 -30.5t-18.5 -48t-6.5 -63q0 -49 13.5 -84t36.5 -54t51 -19v0zM224 524v71h275v-71h-275z" />
    <glyph glyph-name="uni1E0D" unicode="&#x1e0d;" 
d="M226 -11q-39 0 -73.5 15t-61.5 46t-42.5 77t-15.5 108q0 60 15 105.5t41.5 76t61.5 45.5t76 15q23 0 44.5 -6t39 -17.5t28.5 -31.5v249h111h10v-9q-6 -6 -7.5 -13t-1.5 -24l-1 -563q0 -16 2 -31t9 -31h-111q-5 11 -7 18t-2.5 14.5t-0.5 18.5q-12 -21 -30 -35t-39 -20.5
t-45 -6.5v0zM245 80q23 0 40.5 9.5t29 28.5t17 48.5t5.5 67.5q0 52 -10 86.5t-31 51.5t-54 17q-23 0 -42 -10.5t-31 -30.5t-18.5 -48t-6.5 -63q0 -49 13.5 -84t36.5 -54t51 -19v0zM248 -170q-29 0 -50 20t-21 48q0 30 20 49t51 19q28 0 49.5 -20t21.5 -48t-21.5 -48
t-49.5 -20z" />
    <glyph glyph-name="uni1E0F" unicode="&#x1e0f;" 
d="M226 -11q-39 0 -73.5 15t-61.5 46t-42.5 77t-15.5 108q0 60 15 105.5t41.5 76t61.5 45.5t76 15q23 0 44.5 -6t39 -17.5t28.5 -31.5v249h111h10v-9q-6 -6 -7.5 -13t-1.5 -24l-1 -563q0 -16 2 -31t9 -31h-111q-5 11 -7 18t-2.5 14.5t-0.5 18.5q-12 -21 -30 -35t-39 -20.5
t-45 -6.5v0zM245 80q23 0 40.5 9.5t29 28.5t17 48.5t5.5 67.5q0 52 -10 86.5t-31 51.5t-54 17q-23 0 -42 -10.5t-31 -30.5t-18.5 -48t-6.5 -63q0 -49 13.5 -84t36.5 -54t51 -19v0zM110 -156v76h280v-76h-280z" />
    <glyph glyph-name="e" unicode="e" 
d="M271 -11q-50 0 -92.5 16t-74 46.5t-48.5 75.5t-17 102q0 58 17 104t46.5 78t69.5 48.5t86 16.5q41 0 77 -14t63.5 -42.5t43.5 -71t16 -98.5q0 -10 -0.5 -24t-1.5 -24h-308q2 -33 13 -56.5t29 -38.5t40 -22.5t46 -7.5q21 0 40.5 4t37 14t33.5 26l58 -56
q-22 -26 -49.5 -43.5t-59 -25t-65.5 -7.5zM150 287h198q0 24 -6.5 43t-18.5 32t-29.5 19.5t-40.5 6.5q-19 0 -36.5 -5.5t-31.5 -18.5t-23 -32t-12 -45z" />
    <glyph glyph-name="eacute" unicode="&#xe9;" 
d="M271 -11q-50 0 -92.5 16t-74 46.5t-48.5 75.5t-17 102q0 58 17 104t46.5 78t69.5 48.5t86 16.5q41 0 77 -14t63.5 -42.5t43.5 -71t16 -98.5q0 -10 -0.5 -24t-1.5 -24h-308q2 -33 13 -56.5t29 -38.5t40 -22.5t46 -7.5q21 0 40.5 4t37 14t33.5 26l58 -56
q-22 -26 -49.5 -43.5t-59 -25t-65.5 -7.5zM150 287h198q0 24 -6.5 43t-18.5 32t-29.5 19.5t-40.5 6.5q-19 0 -36.5 -5.5t-31.5 -18.5t-23 -32t-12 -45zM242 504l-52 33l83 166l79 -57z" />
    <glyph glyph-name="ebreve" unicode="&#x115;" 
d="M271 -11q-50 0 -92.5 16t-74 46.5t-48.5 75.5t-17 102q0 58 17 104t46.5 78t69.5 48.5t86 16.5q41 0 77 -14t63.5 -42.5t43.5 -71t16 -98.5q0 -10 -0.5 -24t-1.5 -24h-308q2 -33 13 -56.5t29 -38.5t40 -22.5t46 -7.5q21 0 40.5 4t37 14t33.5 26l58 -56
q-22 -26 -49.5 -43.5t-59 -25t-65.5 -7.5zM150 287h198q0 24 -6.5 43t-18.5 32t-29.5 19.5t-40.5 6.5q-19 0 -36.5 -5.5t-31.5 -18.5t-23 -32t-12 -45zM340 668l70 -32q-24 -51 -62.5 -78.5t-88.5 -27.5t-88.5 27.5t-62.5 78.5l70 32q16 -36 35 -54t46 -18q18 0 33 7.5
t27 24t21 40.5z" />
    <glyph glyph-name="ecaron" unicode="&#x11b;" 
d="M271 -11q-50 0 -92.5 16t-74 46.5t-48.5 75.5t-17 102q0 58 17 104t46.5 78t69.5 48.5t86 16.5q41 0 77 -14t63.5 -42.5t43.5 -71t16 -98.5q0 -10 -0.5 -24t-1.5 -24h-308q2 -33 13 -56.5t29 -38.5t40 -22.5t46 -7.5q21 0 40.5 4t37 14t33.5 26l58 -56
q-22 -26 -49.5 -43.5t-59 -25t-65.5 -7.5zM150 287h198q0 24 -6.5 43t-18.5 32t-29.5 19.5t-40.5 6.5q-19 0 -36.5 -5.5t-31.5 -18.5t-23 -32t-12 -45zM144 704l110 -103l112 103l53 -49l-145 -139h-38l-145 139z" />
    <glyph glyph-name="uni1E1D" unicode="&#x1e1d;" 
d="M271 -11q-50 0 -92.5 16t-74 46.5t-48.5 75.5t-17 102q0 58 17 104t46.5 78t69.5 48.5t86 16.5q41 0 77 -14t63.5 -42.5t43.5 -71t16 -98.5q0 -10 -0.5 -24t-1.5 -24h-308q2 -33 13 -56.5t29 -38.5t40 -22.5t46 -7.5q21 0 40.5 4t37 14t33.5 26l58 -56
q-22 -26 -49.5 -43.5t-59 -25t-65.5 -7.5zM150 287h198q0 24 -6.5 43t-18.5 32t-29.5 19.5t-40.5 6.5q-19 0 -36.5 -5.5t-31.5 -18.5t-23 -32t-12 -45zM267 -205q-31 0 -61.5 8t-62.5 33l37 66q26 -22 50 -30.5t49 -8.5q18 0 32 7t14 19q0 11 -13 16.5t-34 5.5h-49l12 89h80
l-4 -31q25 -2 42.5 -12.5t26.5 -25.5t9 -33q0 -43 -34.5 -73t-93.5 -30zM340 668l70 -32q-24 -51 -62.5 -78.5t-88.5 -27.5t-88.5 27.5t-62.5 78.5l70 32q16 -36 35 -54t46 -18q18 0 33 7.5t27 24t21 40.5z" />
    <glyph glyph-name="ecircumflex" unicode="&#xea;" 
d="M271 -11q-50 0 -92.5 16t-74 46.5t-48.5 75.5t-17 102q0 58 17 104t46.5 78t69.5 48.5t86 16.5q41 0 77 -14t63.5 -42.5t43.5 -71t16 -98.5q0 -10 -0.5 -24t-1.5 -24h-308q2 -33 13 -56.5t29 -38.5t40 -22.5t46 -7.5q21 0 40.5 4t37 14t33.5 26l58 -56
q-22 -26 -49.5 -43.5t-59 -25t-65.5 -7.5zM150 287h198q0 24 -6.5 43t-18.5 32t-29.5 19.5t-40.5 6.5q-19 0 -36.5 -5.5t-31.5 -18.5t-23 -32t-12 -45zM147 499l-53 48l145 139h38l145 -139l-53 -48l-112 103z" />
    <glyph glyph-name="uni1EBF" unicode="&#x1ebf;" 
d="M271 -11q-50 0 -92.5 16t-74 46.5t-48.5 75.5t-17 102q0 58 17 104t46.5 78t69.5 48.5t86 16.5q41 0 77 -14t63.5 -42.5t43.5 -71t16 -98.5q0 -10 -0.5 -24t-1.5 -24h-308q2 -33 13 -56.5t29 -38.5t40 -22.5t46 -7.5q21 0 40.5 4t37 14t33.5 26l58 -56
q-22 -26 -49.5 -43.5t-59 -25t-65.5 -7.5zM150 287h198q0 24 -6.5 43t-18.5 32t-29.5 19.5t-40.5 6.5q-19 0 -36.5 -5.5t-31.5 -18.5t-23 -32t-12 -45zM147 501l-53 48l145 139h38l145 -139l-53 -48l-112 103zM402 629l-52 33l83 166l79 -57z" />
    <glyph glyph-name="uni1EC7" unicode="&#x1ec7;" 
d="M271 -11q-50 0 -92.5 16t-74 46.5t-48.5 75.5t-17 102q0 58 17 104t46.5 78t69.5 48.5t86 16.5q41 0 77 -14t63.5 -42.5t43.5 -71t16 -98.5q0 -10 -0.5 -24t-1.5 -24h-308q2 -33 13 -56.5t29 -38.5t40 -22.5t46 -7.5q21 0 40.5 4t37 14t33.5 26l58 -56
q-22 -26 -49.5 -43.5t-59 -25t-65.5 -7.5zM150 287h198q0 24 -6.5 43t-18.5 32t-29.5 19.5t-40.5 6.5q-19 0 -36.5 -5.5t-31.5 -18.5t-23 -32t-12 -45zM266 -170q-29 0 -50 20t-21 48q0 30 20 49t51 19q28 0 49.5 -20t21.5 -48t-21.5 -48t-49.5 -20zM147 499l-53 48l145 139
h38l145 -139l-53 -48l-112 103z" />
    <glyph glyph-name="uni1EC1" unicode="&#x1ec1;" 
d="M271 -11q-50 0 -92.5 16t-74 46.5t-48.5 75.5t-17 102q0 58 17 104t46.5 78t69.5 48.5t86 16.5q41 0 77 -14t63.5 -42.5t43.5 -71t16 -98.5q0 -10 -0.5 -24t-1.5 -24h-308q2 -33 13 -56.5t29 -38.5t40 -22.5t46 -7.5q21 0 40.5 4t37 14t33.5 26l58 -56
q-22 -26 -49.5 -43.5t-59 -25t-65.5 -7.5zM150 287h198q0 24 -6.5 43t-18.5 32t-29.5 19.5t-40.5 6.5q-19 0 -36.5 -5.5t-31.5 -18.5t-23 -32t-12 -45zM148 501l-53 48l145 139h38l145 -139l-53 -48l-112 103zM383 653l-110 142l79 57l83 -166z" />
    <glyph glyph-name="uni1EC3" unicode="&#x1ec3;" 
d="M271 -11q-50 0 -92.5 16t-74 46.5t-48.5 75.5t-17 102q0 58 17 104t46.5 78t69.5 48.5t86 16.5q41 0 77 -14t63.5 -42.5t43.5 -71t16 -98.5q0 -10 -0.5 -24t-1.5 -24h-308q2 -33 13 -56.5t29 -38.5t40 -22.5t46 -7.5q21 0 40.5 4t37 14t33.5 26l58 -56
q-22 -26 -49.5 -43.5t-59 -25t-65.5 -7.5zM150 287h198q0 24 -6.5 43t-18.5 32t-29.5 19.5t-40.5 6.5q-19 0 -36.5 -5.5t-31.5 -18.5t-23 -32t-12 -45zM147 501l-53 48l145 139h38l145 -139l-53 -48l-112 103zM501 750q0 -21 -10 -36t-23.5 -26.5t-24 -23.5t-10.5 -28v-8
h-70v28q0 16 9.5 28t22 22t22 20t9.5 19q0 14 -9 21.5t-23 7.5q-19 0 -33 -7.5t-23 -29.5l-41 54q19 24 47 35t55 11q31 -1 54 -12t35.5 -30t12.5 -45z" />
    <glyph glyph-name="uni1EC5" unicode="&#x1ec5;" 
d="M271 -11q-50 0 -92.5 16t-74 46.5t-48.5 75.5t-17 102q0 58 17 104t46.5 78t69.5 48.5t86 16.5q41 0 77 -14t63.5 -42.5t43.5 -71t16 -98.5q0 -10 -0.5 -24t-1.5 -24h-308q2 -33 13 -56.5t29 -38.5t40 -22.5t46 -7.5q21 0 40.5 4t37 14t33.5 26l58 -56
q-22 -26 -49.5 -43.5t-59 -25t-65.5 -7.5zM150 287h198q0 24 -6.5 43t-18.5 32t-29.5 19.5t-40.5 6.5q-19 0 -36.5 -5.5t-31.5 -18.5t-23 -32t-12 -45zM147 501l-53 48l145 139h38l145 -139l-53 -48l-112 103zM338 824l57 -26q-18 -41 -40.5 -59t-48.5 -18q-21 0 -36.5 8
t-28 18.5t-23 18.5t-22.5 8q-13 0 -23.5 -10.5t-17.5 -28.5l-57 26q14 36 39.5 57t50.5 21q20 0 36.5 -8t30.5 -19t25 -19t21 -8q11 0 19.5 8.5t17.5 30.5z" />
    <glyph glyph-name="uni0205" unicode="&#x205;" 
d="M271 -11q-50 0 -92.5 16t-74 46.5t-48.5 75.5t-17 102q0 58 17 104t46.5 78t69.5 48.5t86 16.5q41 0 77 -14t63.5 -42.5t43.5 -71t16 -98.5q0 -10 -0.5 -24t-1.5 -24h-308q2 -33 13 -56.5t29 -38.5t40 -22.5t46 -7.5q21 0 40.5 4t37 14t33.5 26l58 -56
q-22 -26 -49.5 -43.5t-59 -25t-65.5 -7.5zM150 287h198q0 24 -6.5 43t-18.5 32t-29.5 19.5t-40.5 6.5q-19 0 -36.5 -5.5t-31.5 -18.5t-23 -32t-12 -45zM194 504l-110 142l79 57l83 -166zM354 504l-110 142l79 57l83 -166z" />
    <glyph glyph-name="edieresis" unicode="&#xeb;" 
d="M271 -11q-50 0 -92.5 16t-74 46.5t-48.5 75.5t-17 102q0 58 17 104t46.5 78t69.5 48.5t86 16.5q41 0 77 -14t63.5 -42.5t43.5 -71t16 -98.5q0 -10 -0.5 -24t-1.5 -24h-308q2 -33 13 -56.5t29 -38.5t40 -22.5t46 -7.5q21 0 40.5 4t37 14t33.5 26l58 -56
q-22 -26 -49.5 -43.5t-59 -25t-65.5 -7.5zM150 287h198q0 24 -6.5 43t-18.5 32t-29.5 19.5t-40.5 6.5q-19 0 -36.5 -5.5t-31.5 -18.5t-23 -32t-12 -45zM167 548q-27 0 -47 19t-20 45t20 45.5t47 19.5q30 0 49 -20t19 -45q0 -26 -20 -45t-48 -19zM351 548q-27 0 -46.5 18.5
t-19.5 45.5t19.5 46t46.5 19q31 0 49 -20.5t18 -44.5q0 -26 -19.5 -45t-47.5 -19z" />
    <glyph glyph-name="edotaccent" unicode="&#x117;" 
d="M271 -11q-50 0 -92.5 16t-74 46.5t-48.5 75.5t-17 102q0 58 17 104t46.5 78t69.5 48.5t86 16.5q41 0 77 -14t63.5 -42.5t43.5 -71t16 -98.5q0 -10 -0.5 -24t-1.5 -24h-308q2 -33 13 -56.5t29 -38.5t40 -22.5t46 -7.5q21 0 40.5 4t37 14t33.5 26l58 -56
q-22 -26 -49.5 -43.5t-59 -25t-65.5 -7.5zM150 287h198q0 24 -6.5 43t-18.5 32t-29.5 19.5t-40.5 6.5q-19 0 -36.5 -5.5t-31.5 -18.5t-23 -32t-12 -45zM258 542q-29 0 -50 20t-21 48q0 30 20 49t51 19q28 0 49.5 -20t21.5 -48t-21.5 -48t-49.5 -20z" />
    <glyph glyph-name="uni1EB9" unicode="&#x1eb9;" 
d="M271 -11q-50 0 -92.5 16t-74 46.5t-48.5 75.5t-17 102q0 58 17 104t46.5 78t69.5 48.5t86 16.5q41 0 77 -14t63.5 -42.5t43.5 -71t16 -98.5q0 -10 -0.5 -24t-1.5 -24h-308q2 -33 13 -56.5t29 -38.5t40 -22.5t46 -7.5q21 0 40.5 4t37 14t33.5 26l58 -56
q-22 -26 -49.5 -43.5t-59 -25t-65.5 -7.5zM150 287h198q0 24 -6.5 43t-18.5 32t-29.5 19.5t-40.5 6.5q-19 0 -36.5 -5.5t-31.5 -18.5t-23 -32t-12 -45zM266 -170q-29 0 -50 20t-21 48q0 30 20 49t51 19q28 0 49.5 -20t21.5 -48t-21.5 -48t-49.5 -20z" />
    <glyph glyph-name="egrave" unicode="&#xe8;" 
d="M271 -11q-50 0 -92.5 16t-74 46.5t-48.5 75.5t-17 102q0 58 17 104t46.5 78t69.5 48.5t86 16.5q41 0 77 -14t63.5 -42.5t43.5 -71t16 -98.5q0 -10 -0.5 -24t-1.5 -24h-308q2 -33 13 -56.5t29 -38.5t40 -22.5t46 -7.5q21 0 40.5 4t37 14t33.5 26l58 -56
q-22 -26 -49.5 -43.5t-59 -25t-65.5 -7.5zM150 287h198q0 24 -6.5 43t-18.5 32t-29.5 19.5t-40.5 6.5q-19 0 -36.5 -5.5t-31.5 -18.5t-23 -32t-12 -45zM252 504l-110 142l79 57l83 -166z" />
    <glyph glyph-name="uni1EBB" unicode="&#x1ebb;" 
d="M271 -11q-50 0 -92.5 16t-74 46.5t-48.5 75.5t-17 102q0 58 17 104t46.5 78t69.5 48.5t86 16.5q41 0 77 -14t63.5 -42.5t43.5 -71t16 -98.5q0 -10 -0.5 -24t-1.5 -24h-308q2 -33 13 -56.5t29 -38.5t40 -22.5t46 -7.5q21 0 40.5 4t37 14t33.5 26l58 -56
q-22 -26 -49.5 -43.5t-59 -25t-65.5 -7.5zM150 287h198q0 24 -6.5 43t-18.5 32t-29.5 19.5t-40.5 6.5q-19 0 -36.5 -5.5t-31.5 -18.5t-23 -32t-12 -45zM371 641q0 -21 -10 -36t-23.5 -26.5t-24 -23.5t-10.5 -28v-8h-70v28q0 16 9.5 28t22 22t22 20t9.5 19q0 14 -9 21.5
t-23 7.5q-19 0 -33 -7.5t-23 -29.5l-41 54q19 24 47 35t55 11q31 -1 54 -12t35.5 -30t12.5 -45z" />
    <glyph glyph-name="uni0207" unicode="&#x207;" 
d="M271 -11q-50 0 -92.5 16t-74 46.5t-48.5 75.5t-17 102q0 58 17 104t46.5 78t69.5 48.5t86 16.5q41 0 77 -14t63.5 -42.5t43.5 -71t16 -98.5q0 -10 -0.5 -24t-1.5 -24h-308q2 -33 13 -56.5t29 -38.5t40 -22.5t46 -7.5q21 0 40.5 4t37 14t33.5 26l58 -56
q-22 -26 -49.5 -43.5t-59 -25t-65.5 -7.5zM150 287h198q0 24 -6.5 43t-18.5 32t-29.5 19.5t-40.5 6.5q-19 0 -36.5 -5.5t-31.5 -18.5t-23 -32t-12 -45zM180 520l-70 32q24 51 62.5 78.5t88.5 27.5t88.5 -27.5t62.5 -78.5l-70 -32q-16 36 -35 54t-46 18q-18 0 -33 -7.5
t-27 -23.5t-21 -41z" />
    <glyph glyph-name="emacron" unicode="&#x113;" 
d="M271 -11q-50 0 -92.5 16t-74 46.5t-48.5 75.5t-17 102q0 58 17 104t46.5 78t69.5 48.5t86 16.5q41 0 77 -14t63.5 -42.5t43.5 -71t16 -98.5q0 -10 -0.5 -24t-1.5 -24h-308q2 -33 13 -56.5t29 -38.5t40 -22.5t46 -7.5q21 0 40.5 4t37 14t33.5 26l58 -56
q-22 -26 -49.5 -43.5t-59 -25t-65.5 -7.5zM150 287h198q0 24 -6.5 43t-18.5 32t-29.5 19.5t-40.5 6.5q-19 0 -36.5 -5.5t-31.5 -18.5t-23 -32t-12 -45zM118 564v76h280v-76h-280z" />
    <glyph glyph-name="uni1E17" unicode="&#x1e17;" 
d="M271 -11q-50 0 -92.5 16t-74 46.5t-48.5 75.5t-17 102q0 58 17 104t46.5 78t69.5 48.5t86 16.5q41 0 77 -14t63.5 -42.5t43.5 -71t16 -98.5q0 -10 -0.5 -24t-1.5 -24h-308q2 -33 13 -56.5t29 -38.5t40 -22.5t46 -7.5q21 0 40.5 4t37 14t33.5 26l58 -56
q-22 -26 -49.5 -43.5t-59 -25t-65.5 -7.5zM150 287h198q0 24 -6.5 43t-18.5 32t-29.5 19.5t-40.5 6.5q-19 0 -36.5 -5.5t-31.5 -18.5t-23 -32t-12 -45zM118 564v76h280v-76h-280zM242 653l-52 33l83 166l79 -57z" />
    <glyph glyph-name="uni1E15" unicode="&#x1e15;" 
d="M271 -11q-50 0 -92.5 16t-74 46.5t-48.5 75.5t-17 102q0 58 17 104t46.5 78t69.5 48.5t86 16.5q41 0 77 -14t63.5 -42.5t43.5 -71t16 -98.5q0 -10 -0.5 -24t-1.5 -24h-308q2 -33 13 -56.5t29 -38.5t40 -22.5t46 -7.5q21 0 40.5 4t37 14t33.5 26l58 -56
q-22 -26 -49.5 -43.5t-59 -25t-65.5 -7.5zM150 287h198q0 24 -6.5 43t-18.5 32t-29.5 19.5t-40.5 6.5q-19 0 -36.5 -5.5t-31.5 -18.5t-23 -32t-12 -45zM118 564v76h280v-76h-280zM252 653l-110 142l79 57l83 -166z" />
    <glyph glyph-name="eogonek" unicode="&#x119;" 
d="M271 -11q-50 0 -92.5 16t-74 46.5t-48.5 75.5t-17 102q0 58 17 104t46.5 78t69.5 48.5t86 16.5q41 0 77 -14t63.5 -42.5t43.5 -71t16 -98.5q0 -10 -0.5 -24t-1.5 -24h-308q2 -33 13 -56.5t29 -38.5t40 -22.5t46 -7.5q21 0 40.5 4t37 14t33.5 26l58 -56
q-22 -26 -49.5 -43.5t-59 -25t-65.5 -7.5zM150 287h198q0 24 -6.5 43t-18.5 32t-29.5 19.5t-40.5 6.5q-19 0 -36.5 -5.5t-31.5 -18.5t-23 -32t-12 -45zM384 -134l-45 -88q-45 12 -74 29t-43.5 38.5t-14.5 44.5q0 25 16 51.5t46.5 52.5t75.5 49l40 -27q-21 -18 -36.5 -35.5
t-23.5 -32.5t-8 -28q0 -19 17 -32.5t50 -21.5z" />
    <glyph glyph-name="uni029A" unicode="&#x29a;" 
d="M229 -17q-66 0 -111 19t-67 52.5t-22 74.5q0 29 11 51t30 39t45 28q-34 18 -50.5 46t-16.5 62q0 31 22 59.5t62.5 46.5t96.5 18q77 0 131 -30.5t81.5 -86t27.5 -129.5q0 -76 -28 -132.5t-82 -86.5t-130 -31zM232 74q43 0 71.5 17t42.5 52t14 90q0 48 -11.5 82.5t-38 53
t-70.5 18.5q-28 0 -46 -8t-26.5 -20.5t-8.5 -27.5q0 -13 7 -25t23 -20t44 -8q12 0 20 0.5t20 2.5v-84l-18 1.5t-10.5 0.5h-16.5q-24 0 -41.5 -5t-28.5 -13t-16 -18t-5 -22q0 -16 10.5 -31.5t32 -25.5t52.5 -10z" />
    <glyph glyph-name="uni1EBD" unicode="&#x1ebd;" 
d="M271 -11q-50 0 -92.5 16t-74 46.5t-48.5 75.5t-17 102q0 58 17 104t46.5 78t69.5 48.5t86 16.5q41 0 77 -14t63.5 -42.5t43.5 -71t16 -98.5q0 -10 -0.5 -24t-1.5 -24h-308q2 -33 13 -56.5t29 -38.5t40 -22.5t46 -7.5q21 0 40.5 4t37 14t33.5 26l58 -56
q-22 -26 -49.5 -43.5t-59 -25t-65.5 -7.5zM150 287h198q0 24 -6.5 43t-18.5 32t-29.5 19.5t-40.5 6.5q-19 0 -36.5 -5.5t-31.5 -18.5t-23 -32t-12 -45zM368 668l60 -31q-20 -43 -44 -61.5t-54 -18.5q-29 0 -48 9.5t-33 22t-25.5 21.5t-25.5 9q-17 0 -29.5 -12.5t-23.5 -36.5
l-62 29q17 43 44 65t67 22q26 0 44 -9t31.5 -21t26 -21t27.5 -9q17 0 26 10.5t19 31.5z" />
    <glyph glyph-name="uni0259" unicode="&#x259;" 
d="M229 477q50 0 92.5 -16.5t74 -47t48.5 -75.5t17 -102q0 -58 -17 -104t-46.5 -77.5t-69.5 -48.5t-86 -17q-41 0 -77 14t-63.5 42.5t-43.5 71t-16 98.5q0 10 0.5 24.5t1.5 24.5h308q-1 32 -12.5 55.5t-29.5 38.5t-40 22.5t-46 7.5q-20 0 -40 -4t-37.5 -13.5t-33.5 -26.5
l-58 57q23 27 50 43.5t58.5 24.5t65.5 8zM350 179h-198q0 -25 6.5 -44t18.5 -32t29.5 -19.5t40.5 -6.5q19 0 36.5 6t31.5 18.5t23 31.5t12 46z" />
    <glyph glyph-name="uni01B9" unicode="&#x1b9;" 
d="M272 -179q-66 0 -115.5 26t-76.5 70t-27 96q0 50 18.5 89t52 67t80 42.5t102.5 14.5h34v-90q-50 1 -84 -7t-54 -24t-28.5 -38t-8.5 -48q0 -33 15.5 -56t41.5 -34t57 -11q34 0 59 8t45 26q10 14 13 20.5t2 14.5l6 8l7 -6l47 -87q-36 -41 -81.5 -61t-104.5 -20v0zM72 380
v83h348v-97h-212l132 -140l-89 -31z" />
    <glyph glyph-name="f" unicode="f" 
d="M139 377h-101v88h101v28q0 64 26.5 104.5t70.5 60.5t95 20q47 0 87.5 -16.5t68.5 -47.5l-42 -77l-5 -8l-8 5q-3 7 -6 14.5t-16 18.5q-17 12 -34 17.5t-39 5.5q-26 0 -46 -11t-30 -32t-10 -53v-29h140v-88h-140v-377h-112v377z" />
    <glyph glyph-name="g" unicode="g" 
d="M239 -179q-50 0 -89 9t-66 25t-41.5 38.5t-14.5 50.5q0 24 12 45t32.5 36.5t44.5 24.5l51 -21q-13 -10 -25.5 -19.5t-20 -21t-7.5 -27.5q0 -13 10 -23t28 -16.5t42 -9.5t53 -3q38 0 64 7t40 19.5t14 28.5q0 15 -8 24.5t-29 13.5t-59 4q-32 0 -63 3t-58.5 10t-48.5 18.5
t-32.5 28.5t-11.5 41q0 33 19.5 57t47.5 44l52 -30q-10 -9 -17.5 -15t-11.5 -11.5t-4 -15.5q0 -12 15.5 -20t51 -12t92.5 -4q45 0 75 -9.5t48 -27t26.5 -40t8.5 -47.5q0 -30 -13 -57.5t-40 -49.5t-68.5 -35t-98.5 -13zM230 157q-49 0 -88.5 21t-62 57.5t-22.5 81.5
t22.5 81.5t62 58.5t88.5 22q50 0 88.5 -22t61 -58.5t22.5 -81.5t-22.5 -81.5t-61 -57.5t-88.5 -21zM229 239q22 0 39.5 10t28 28t10.5 40t-10.5 39t-28 27t-39.5 10q-20 0 -37.5 -10.5t-28.5 -27.5t-11 -38t10.5 -39t28 -28.5t38.5 -10.5zM374 380l-43 53q28 23 64 35t78 9
l11 -78q-30 6 -59 1t-51 -20z" />
    <glyph glyph-name="gbreve" unicode="&#x11f;" 
d="M239 -179q-50 0 -89 9t-66 25t-41.5 38.5t-14.5 50.5q0 24 12 45t32.5 36.5t44.5 24.5l51 -21q-13 -10 -25.5 -19.5t-20 -21t-7.5 -27.5q0 -13 10 -23t28 -16.5t42 -9.5t53 -3q38 0 64 7t40 19.5t14 28.5q0 15 -8 24.5t-29 13.5t-59 4q-32 0 -63 3t-58.5 10t-48.5 18.5
t-32.5 28.5t-11.5 41q0 33 19.5 57t47.5 44l52 -30q-10 -9 -17.5 -15t-11.5 -11.5t-4 -15.5q0 -12 15.5 -20t51 -12t92.5 -4q45 0 75 -9.5t48 -27t26.5 -40t8.5 -47.5q0 -30 -13 -57.5t-40 -49.5t-68.5 -35t-98.5 -13zM230 157q-49 0 -88.5 21t-62 57.5t-22.5 81.5
t22.5 81.5t62 58.5t88.5 22q50 0 88.5 -22t61 -58.5t22.5 -81.5t-22.5 -81.5t-61 -57.5t-88.5 -21zM229 239q22 0 39.5 10t28 28t10.5 40t-10.5 39t-28 27t-39.5 10q-20 0 -37.5 -10.5t-28.5 -27.5t-11 -38t10.5 -39t28 -28.5t38.5 -10.5zM374 380l-43 53q28 23 64 35t78 9
l11 -78q-30 6 -59 1t-51 -20zM259 518q-39 0 -81 19.5t-84 63.5l61 74q21 -37 50 -54t57 -17q27 0 55.5 15.5t54.5 55.5l48 -72q-22 -27 -49 -46t-55.5 -29t-56.5 -10z" />
    <glyph glyph-name="gcaron" unicode="&#x1e7;" 
d="M239 -179q-50 0 -89 9t-66 25t-41.5 38.5t-14.5 50.5q0 24 12 45t32.5 36.5t44.5 24.5l51 -21q-13 -10 -25.5 -19.5t-20 -21t-7.5 -27.5q0 -13 10 -23t28 -16.5t42 -9.5t53 -3q38 0 64 7t40 19.5t14 28.5q0 15 -8 24.5t-29 13.5t-59 4q-32 0 -63 3t-58.5 10t-48.5 18.5
t-32.5 28.5t-11.5 41q0 33 19.5 57t47.5 44l52 -30q-10 -9 -17.5 -15t-11.5 -11.5t-4 -15.5q0 -12 15.5 -20t51 -12t92.5 -4q45 0 75 -9.5t48 -27t26.5 -40t8.5 -47.5q0 -30 -13 -57.5t-40 -49.5t-68.5 -35t-98.5 -13zM230 157q-49 0 -88.5 21t-62 57.5t-22.5 81.5
t22.5 81.5t62 58.5t88.5 22q50 0 88.5 -22t61 -58.5t22.5 -81.5t-22.5 -81.5t-61 -57.5t-88.5 -21zM229 239q22 0 39.5 10t28 28t10.5 40t-10.5 39t-28 27t-39.5 10q-20 0 -37.5 -10.5t-28.5 -27.5t-11 -38t10.5 -39t28 -28.5t38.5 -10.5zM374 380l-43 53q28 23 64 35t78 9
l11 -78q-30 6 -59 1t-51 -20zM117 704l110 -103l112 103l53 -49l-145 -139h-38l-145 139z" />
    <glyph glyph-name="gcircumflex" unicode="&#x11d;" 
d="M239 -179q-50 0 -89 9t-66 25t-41.5 38.5t-14.5 50.5q0 24 12 45t32.5 36.5t44.5 24.5l51 -21q-13 -10 -25.5 -19.5t-20 -21t-7.5 -27.5q0 -13 10 -23t28 -16.5t42 -9.5t53 -3q38 0 64 7t40 19.5t14 28.5q0 15 -8 24.5t-29 13.5t-59 4q-32 0 -63 3t-58.5 10t-48.5 18.5
t-32.5 28.5t-11.5 41q0 33 19.5 57t47.5 44l52 -30q-10 -9 -17.5 -15t-11.5 -11.5t-4 -15.5q0 -12 15.5 -20t51 -12t92.5 -4q45 0 75 -9.5t48 -27t26.5 -40t8.5 -47.5q0 -30 -13 -57.5t-40 -49.5t-68.5 -35t-98.5 -13zM230 157q-49 0 -88.5 21t-62 57.5t-22.5 81.5
t22.5 81.5t62 58.5t88.5 22q50 0 88.5 -22t61 -58.5t22.5 -81.5t-22.5 -81.5t-61 -57.5t-88.5 -21zM229 239q22 0 39.5 10t28 28t10.5 40t-10.5 39t-28 27t-39.5 10q-20 0 -37.5 -10.5t-28.5 -27.5t-11 -38t10.5 -39t28 -28.5t38.5 -10.5zM374 380l-43 53q28 23 64 35t78 9
l11 -78q-30 6 -59 1t-51 -20zM119 499l-53 48l145 139h38l145 -139l-53 -48l-112 103z" />
    <glyph glyph-name="uni0123" unicode="&#x123;" 
d="M239 -179q-50 0 -89 9t-66 25t-41.5 38.5t-14.5 50.5q0 24 12 45t32.5 36.5t44.5 24.5l51 -21q-13 -10 -25.5 -19.5t-20 -21t-7.5 -27.5q0 -13 10 -23t28 -16.5t42 -9.5t53 -3q38 0 64 7t40 19.5t14 28.5q0 15 -8 24.5t-29 13.5t-59 4q-32 0 -63 3t-58.5 10t-48.5 18.5
t-32.5 28.5t-11.5 41q0 33 19.5 57t47.5 44l52 -30q-10 -9 -17.5 -15t-11.5 -11.5t-4 -15.5q0 -12 15.5 -20t51 -12t92.5 -4q45 0 75 -9.5t48 -27t26.5 -40t8.5 -47.5q0 -30 -13 -57.5t-40 -49.5t-68.5 -35t-98.5 -13zM230 157q-49 0 -88.5 21t-62 57.5t-22.5 81.5
t22.5 81.5t62 58.5t88.5 22q50 0 88.5 -22t61 -58.5t22.5 -81.5t-22.5 -81.5t-61 -57.5t-88.5 -21zM229 239q22 0 39.5 10t28 28t10.5 40t-10.5 39t-28 27t-39.5 10q-20 0 -37.5 -10.5t-28.5 -27.5t-11 -38t10.5 -39t28 -28.5t38.5 -10.5zM374 380l-43 53q28 23 64 35t78 9
l11 -78q-30 6 -59 1t-51 -20zM254 819l61 -51q-28 -26 -43 -51.5t-15 -42.5q0 -11 7 -20.5t16.5 -20t16.5 -23t7 -30.5q0 -33 -23 -51t-54 -18q-38 0 -61.5 28t-23.5 72q0 24 6.5 48.5t20.5 50t35 53.5t50 56z" />
    <glyph glyph-name="gdotaccent" unicode="&#x121;" 
d="M239 -179q-50 0 -89 9t-66 25t-41.5 38.5t-14.5 50.5q0 24 12 45t32.5 36.5t44.5 24.5l51 -21q-13 -10 -25.5 -19.5t-20 -21t-7.5 -27.5q0 -13 10 -23t28 -16.5t42 -9.5t53 -3q38 0 64 7t40 19.5t14 28.5q0 15 -8 24.5t-29 13.5t-59 4q-32 0 -63 3t-58.5 10t-48.5 18.5
t-32.5 28.5t-11.5 41q0 33 19.5 57t47.5 44l52 -30q-10 -9 -17.5 -15t-11.5 -11.5t-4 -15.5q0 -12 15.5 -20t51 -12t92.5 -4q45 0 75 -9.5t48 -27t26.5 -40t8.5 -47.5q0 -30 -13 -57.5t-40 -49.5t-68.5 -35t-98.5 -13zM230 157q-49 0 -88.5 21t-62 57.5t-22.5 81.5
t22.5 81.5t62 58.5t88.5 22q50 0 88.5 -22t61 -58.5t22.5 -81.5t-22.5 -81.5t-61 -57.5t-88.5 -21zM229 239q22 0 39.5 10t28 28t10.5 40t-10.5 39t-28 27t-39.5 10q-20 0 -37.5 -10.5t-28.5 -27.5t-11 -38t10.5 -39t28 -28.5t38.5 -10.5zM374 380l-43 53q28 23 64 35t78 9
l11 -78q-30 6 -59 1t-51 -20zM231 542q-29 0 -50 20t-21 48q0 30 20 49t51 19q28 0 49.5 -20t21.5 -48t-21.5 -48t-49.5 -20z" />
    <glyph glyph-name="uni1E21" unicode="&#x1e21;" 
d="M239 -179q-50 0 -89 9t-66 25t-41.5 38.5t-14.5 50.5q0 24 12 45t32.5 36.5t44.5 24.5l51 -21q-13 -10 -25.5 -19.5t-20 -21t-7.5 -27.5q0 -13 10 -23t28 -16.5t42 -9.5t53 -3q38 0 64 7t40 19.5t14 28.5q0 15 -8 24.5t-29 13.5t-59 4q-32 0 -63 3t-58.5 10t-48.5 18.5
t-32.5 28.5t-11.5 41q0 33 19.5 57t47.5 44l52 -30q-10 -9 -17.5 -15t-11.5 -11.5t-4 -15.5q0 -12 15.5 -20t51 -12t92.5 -4q45 0 75 -9.5t48 -27t26.5 -40t8.5 -47.5q0 -30 -13 -57.5t-40 -49.5t-68.5 -35t-98.5 -13zM230 157q-49 0 -88.5 21t-62 57.5t-22.5 81.5
t22.5 81.5t62 58.5t88.5 22q50 0 88.5 -22t61 -58.5t22.5 -81.5t-22.5 -81.5t-61 -57.5t-88.5 -21zM229 239q22 0 39.5 10t28 28t10.5 40t-10.5 39t-28 27t-39.5 10q-20 0 -37.5 -10.5t-28.5 -27.5t-11 -38t10.5 -39t28 -28.5t38.5 -10.5zM374 380l-43 53q28 23 64 35t78 9
l11 -78q-30 6 -59 1t-51 -20zM91 564v76h280v-76h-280z" />
    <glyph glyph-name="h" unicode="h" 
d="M55 671h113h9v-9q-5 -6 -6.5 -13t-1.5 -24v-221q17 25 39 40.5t47.5 23.5t49.5 8q45 0 78.5 -19.5t52 -63t18.5 -112.5v-281h-114v279q0 41 -8 65.5t-22.5 34.5t-34.5 10q-17 0 -33 -5t-29 -15.5t-23.5 -25.5t-15.5 -34t-5 -42v-267h-114v671z" />
    <glyph glyph-name="hbar" unicode="&#x127;" 
d="M55 671h113h9v-9q-5 -6 -6.5 -13t-1.5 -24v-221q17 25 39 40.5t47.5 23.5t49.5 8q45 0 78.5 -19.5t52 -63t18.5 -112.5v-281h-114v279q0 41 -8 65.5t-22.5 34.5t-34.5 10q-17 0 -33 -5t-29 -15.5t-23.5 -25.5t-15.5 -34t-5 -42v-267h-114v671zM-3 518v71h275v-71h-275z
" />
    <glyph glyph-name="uni1E2B" unicode="&#x1e2b;" 
d="M55 671h113h9v-9q-5 -6 -6.5 -13t-1.5 -24v-221q17 25 39 40.5t47.5 23.5t49.5 8q45 0 78.5 -19.5t52 -63t18.5 -112.5v-281h-114v279q0 41 -8 65.5t-22.5 34.5t-34.5 10q-17 0 -33 -5t-29 -15.5t-23.5 -25.5t-15.5 -34t-5 -42v-267h-114v671zM341 -51l70 -32
q-24 -51 -62.5 -78.5t-88.5 -27.5t-88.5 27.5t-62.5 78.5l70 32q16 -36 35 -54t46 -18q18 0 33 7.5t27 24t21 40.5z" />
    <glyph glyph-name="hcircumflex" unicode="&#x125;" 
d="M55 671h113h9v-9q-5 -6 -6.5 -13t-1.5 -24v-221q17 25 39 40.5t47.5 23.5t49.5 8q45 0 78.5 -19.5t52 -63t18.5 -112.5v-281h-114v279q0 41 -8 65.5t-22.5 34.5t-34.5 10q-17 0 -33 -5t-29 -15.5t-23.5 -25.5t-15.5 -34t-5 -42v-267h-114v671zM-22 697l-36 55l161 96h31
l158 -94l-38 -57l-135 66z" />
    <glyph glyph-name="uni1E25" unicode="&#x1e25;" 
d="M55 671h113h9v-9q-5 -6 -6.5 -13t-1.5 -24v-221q17 25 39 40.5t47.5 23.5t49.5 8q45 0 78.5 -19.5t52 -63t18.5 -112.5v-281h-114v279q0 41 -8 65.5t-22.5 34.5t-34.5 10q-17 0 -33 -5t-29 -15.5t-23.5 -25.5t-15.5 -34t-5 -42v-267h-114v671zM248 -170q-29 0 -50 20
t-21 48q0 30 20 49t51 19q28 0 49.5 -20t21.5 -48t-21.5 -48t-49.5 -20z" />
    <glyph glyph-name="i" unicode="i" 
d="M84 0v89h114v287h-108v89h222v-376h104v-89h-332zM250 542q-29 0 -50 20t-21 48q0 30 20 49t51 19q28 0 49.5 -20t21.5 -48t-21.5 -48t-49.5 -20z" />
    <glyph glyph-name="dotlessi" unicode="&#x131;" 
d="M84 0v89h114v287h-108v89h222v-376h104v-89h-332z" />
    <glyph glyph-name="iacute" unicode="&#xed;" 
d="M84 0v89h114v287h-108v89h222v-376h104v-89h-332zM248 510l-52 33l83 166l79 -57z" />
    <glyph glyph-name="ibreve" unicode="&#x12d;" 
d="M84 0v89h114v287h-108v89h222v-376h104v-89h-332zM331 668l70 -32q-24 -51 -62.5 -78.5t-88.5 -27.5t-88.5 27.5t-62.5 78.5l70 32q16 -36 35 -54t46 -18q18 0 33 7.5t27 24t21 40.5z" />
    <glyph glyph-name="icircumflex" unicode="&#xee;" 
d="M84 0v89h114v287h-108v89h222v-376h104v-89h-332zM138 499l-53 48l145 139h38l145 -139l-53 -48l-112 103z" />
    <glyph glyph-name="uni0209" unicode="&#x209;" 
d="M84 0v89h114v287h-108v89h222v-376h104v-89h-332zM185 504l-110 142l79 57l83 -166zM345 504l-110 142l79 57l83 -166z" />
    <glyph glyph-name="idieresis" unicode="&#xef;" 
d="M84 0v89h114v287h-108v89h222v-376h104v-89h-332zM151 548q-27 0 -47 19t-20 45t20 45.5t47 19.5q30 0 49 -20t19 -45q0 -26 -20 -45t-48 -19zM335 548q-27 0 -46.5 18.5t-19.5 45.5t19.5 46t46.5 19q31 0 49 -20.5t18 -44.5q0 -26 -19.5 -45t-47.5 -19z" />
    <glyph glyph-name="uni1E2F" unicode="&#x1e2f;" 
d="M84 0v89h114v287h-108v89h222v-376h104v-89h-332zM158 548q-27 0 -47 19t-20 45t20 45.5t47 19.5q30 0 49 -20t19 -45q0 -26 -20 -45t-48 -19zM342 548q-27 0 -46.5 18.5t-19.5 45.5t19.5 46t46.5 19q31 0 49 -20.5t18 -44.5q0 -26 -19.5 -45t-47.5 -19zM234 655l-52 33
l83 166l79 -57z" />
    <glyph glyph-name="i.loclTRK" 
d="M84 0v89h114v287h-108v89h222v-376h104v-89h-332zM250 542q-29 0 -50 20t-21 48q0 30 20 49t51 19q28 0 49.5 -20t21.5 -48t-21.5 -48t-49.5 -20z" />
    <glyph glyph-name="uni1ECB" unicode="&#x1ecb;" 
d="M84 0v89h114v287h-108v89h222v-376h104v-89h-332zM250 542q-29 0 -50 20t-21 48q0 30 20 49t51 19q28 0 49.5 -20t21.5 -48t-21.5 -48t-49.5 -20zM248 -170q-29 0 -50 20t-21 48q0 30 20 49t51 19q28 0 49.5 -20t21.5 -48t-21.5 -48t-49.5 -20z" />
    <glyph glyph-name="igrave" unicode="&#xec;" 
d="M84 0v89h114v287h-108v89h222v-376h104v-89h-332zM243 504l-110 142l79 57l83 -166z" />
    <glyph glyph-name="uni1EC9" unicode="&#x1ec9;" 
d="M84 0v89h114v287h-108v89h222v-376h104v-89h-332zM362 641q0 -21 -10 -36t-23.5 -26.5t-24 -23.5t-10.5 -28v-8h-70v28q0 16 9.5 28t22 22t22 20t9.5 19q0 14 -9 21.5t-23 7.5q-19 0 -33 -7.5t-23 -29.5l-41 54q19 24 47 35t55 11q31 -1 54 -12t35.5 -30t12.5 -45z" />
    <glyph glyph-name="uni020B" unicode="&#x20b;" 
d="M84 0v89h114v287h-108v89h222v-376h104v-89h-332zM171 520l-70 32q24 51 62.5 78.5t88.5 27.5t88.5 -27.5t62.5 -78.5l-70 -32q-16 36 -35 54t-46 18q-18 0 -33 -7.5t-27 -23.5t-21 -41z" />
    <glyph glyph-name="imacron" unicode="&#x12b;" 
d="M84 0v89h114v287h-108v89h222v-376h104v-89h-332zM109 564v76h280v-76h-280z" />
    <glyph glyph-name="iogonek" unicode="&#x12f;" 
d="M84 0v89h114v287h-108v89h222v-376h104v-89h-332zM250 542q-29 0 -50 20t-21 48q0 30 20 49t51 19q28 0 49.5 -20t21.5 -48t-21.5 -48t-49.5 -20zM418 -150l-45 -88q-45 12 -74 29t-43.5 38.5t-14.5 44.5q0 25 16 51.5t46.5 52.5t75.5 49l40 -27q-21 -18 -36.5 -35.5
t-23.5 -32.5t-8 -28q0 -19 17 -32.5t50 -21.5z" />
    <glyph glyph-name="itilde" unicode="&#x129;" 
d="M84 0v89h114v287h-108v89h222v-376h104v-89h-332zM342 671l57 -26q-18 -41 -40.5 -59t-48.5 -18q-21 0 -36.5 8t-28 18.5t-23 18.5t-22.5 8q-13 0 -23.5 -10.5t-17.5 -28.5l-57 26q14 36 39.5 57t50.5 21q20 0 36.5 -8t30.5 -19t25 -19t21 -8q11 0 19.5 8.5t17.5 30.5z
" />
    <glyph glyph-name="j" unicode="j" 
d="M191 -176q-47 0 -86 18t-70 53l61 82l6 7l8 -5l4 -16t13 -21q12 -11 27.5 -17.5t36.5 -6.5q25 0 42 11t25 33.5t8 56.5v357h-162v89h277v-436q0 -73 -27 -118.5t-70 -66t-93 -20.5v0zM316 542q-29 0 -50 20t-21 48q0 30 20 49t51 19q28 0 49.5 -20t21.5 -48t-21.5 -48
t-49.5 -20z" />
    <glyph glyph-name="uni0237" unicode="&#x237;" 
d="M191 -176q-47 0 -86 18t-70 53l61 82l6 7l8 -5l4 -16t13 -21q12 -11 27.5 -17.5t36.5 -6.5q25 0 42 11t25 33.5t8 56.5v357h-162v89h277v-436q0 -73 -27 -118.5t-70 -66t-93 -20.5v0z" />
    <glyph glyph-name="jcircumflex" unicode="&#x135;" 
d="M191 -176q-47 0 -86 18t-70 53l61 82l6 7l8 -5l4 -16t13 -21q12 -11 27.5 -17.5t36.5 -6.5q25 0 42 11t25 33.5t8 56.5v357h-162v89h277v-436q0 -73 -27 -118.5t-70 -66t-93 -20.5v0zM204 499l-53 48l145 139h38l145 -139l-53 -48l-112 103z" />
    <glyph glyph-name="k" unicode="k" 
d="M204 211l-37 -37v-174h-115v671h114h9v-9q-5 -6 -6.5 -13t-1.5 -24v-328l178 172q8 -1 17 -2.5t18 -2.5t18 -1.5t15 -0.5h54l-185 -181l210 -280l-129 -5z" />
    <glyph glyph-name="uni0137" unicode="&#x137;" 
d="M204 211l-37 -37v-174h-115v671h114h9v-9q-5 -6 -6.5 -13t-1.5 -24v-328l178 172q8 -1 17 -2.5t18 -2.5t18 -1.5t15 -0.5h54l-185 -181l210 -280l-129 -5zM232 -295l-55 46q25 23 38 46t13 38q0 13 -10 24.5t-20.5 25.5t-10.5 35q0 30 21 46.5t48 16.5q35 0 55.5 -25.5
t20.5 -65.5q0 -28 -10.5 -58t-33 -62t-56.5 -67z" />
    <glyph glyph-name="kgreenlandic" unicode="&#x138;" 
d="M204 211l-37 -37v-174h-115v465h114h9v-9q-5 -6 -6.5 -13t-1.5 -24v-122l178 172q8 -1 17 -2.5t18 -2.5t18 -1.5t15 -0.5h54l-185 -181l210 -280l-129 -5z" />
    <glyph glyph-name="l" unicode="l" 
d="M63 0v89h131v493h-125v89h239v-582h130v-89h-375z" />
    <glyph glyph-name="lacute" unicode="&#x13a;" 
d="M63 0v89h131v493h-125v89h239v-582h130v-89h-375zM174 701l-28 54l163 95l44 -85z" />
    <glyph glyph-name="lcaron" unicode="&#x13e;" 
d="M63 0v89h131v493h-125v89h239v-582h130v-89h-375zM390 438l-58 50q17 16 29 29t18.5 24t6.5 21q0 7 -5.5 13t-12.5 13t-12.5 15.5t-5.5 19.5q0 26 19 43.5t48 17.5t51 -22t22 -57q0 -22 -11 -48t-33 -55.5t-56 -63.5z" />
    <glyph glyph-name="uni013C" unicode="&#x13c;" 
d="M63 0v89h131v493h-125v89h239v-582h130v-89h-375zM232 -295l-55 46q25 23 38 46t13 38q0 13 -10 24.5t-20.5 25.5t-10.5 35q0 30 21 46.5t48 16.5q35 0 55.5 -25.5t20.5 -65.5q0 -28 -10.5 -58t-33 -62t-56.5 -67z" />
    <glyph glyph-name="ldot" unicode="&#x140;" 
d="M57 0v89h107v497h-101v89h215v-586h147v-89h-368zM395 258q-32 0 -54 22t-22 53q0 32 22.5 53.5t53.5 21.5t53.5 -21.5t22.5 -53.5q0 -31 -22 -53t-54 -22z" />
    <glyph glyph-name="uni1E37" unicode="&#x1e37;" 
d="M63 0v89h131v493h-125v89h239v-582h130v-89h-375zM248 -170q-29 0 -50 20t-21 48q0 30 20 49t51 19q28 0 49.5 -20t21.5 -48t-21.5 -48t-49.5 -20z" />
    <glyph glyph-name="uni01C9" unicode="&#x1c9;" 
d="M262 -177q-35 0 -63.5 12.5t-51.5 36.5l56 87q5 -2 6 -5t2 -7.5t5.5 -9.5t16.5 -11q6 -3 14.5 -5.5t17.5 -2.5q20 0 37 10t27 32.5t10 58.5v357h-102v89h215v-442q0 -53 -14.5 -90.5t-40.5 -62t-60.5 -36t-74.5 -11.5zM25 0v89h49v497h-43v89h155v-586h96v-89h-257z
M392 542q-30 0 -50.5 20t-20.5 48q0 30 20 49t51 19q28 0 49.5 -20t21.5 -48t-21.5 -48t-49.5 -20z" />
    <glyph glyph-name="uni1E3B" unicode="&#x1e3b;" 
d="M63 0v89h131v493h-125v89h239v-582h130v-89h-375zM110 -156v76h280v-76h-280z" />
    <glyph glyph-name="lslash" unicode="&#x142;" 
d="M67 0v89h127v164l-73 -25v103l73 25v226h-121v89h235v-276l83 28v-104l-83 -29v-201h127v-89h-368z" />
    <glyph glyph-name="m" unicode="m" 
d="M30 0v465h95v-34q12 16 25 26t27.5 14.5t28.5 4.5q17 0 32 -5.5t27.5 -18t19.5 -32.5q11 19 25 31.5t32.5 18.5t40.5 6q26 0 44 -9t29.5 -26t16.5 -42t5 -56v-343h-98v319q0 30 -3 46.5t-9 23t-16 6.5q-13 0 -25 -12.5t-19.5 -34t-7.5 -50.5v-298h-92v316q0 48 -7 64
t-26 16q-9 0 -17.5 -6t-15 -17.5t-10.5 -29t-4 -39.5v-304h-98z" />
    <glyph glyph-name="uni1E43" unicode="&#x1e43;" 
d="M30 0v465h95v-34q12 16 25 26t27.5 14.5t28.5 4.5q17 0 32 -5.5t27.5 -18t19.5 -32.5q11 19 25 31.5t32.5 18.5t40.5 6q26 0 44 -9t29.5 -26t16.5 -42t5 -56v-343h-98v319q0 30 -3 46.5t-9 23t-16 6.5q-13 0 -25 -12.5t-19.5 -34t-7.5 -50.5v-298h-92v316q0 48 -7 64
t-26 16q-9 0 -17.5 -6t-15 -17.5t-10.5 -29t-4 -39.5v-304h-98zM248 -170q-29 0 -50 20t-21 48q0 30 20 49t51 19q28 0 49.5 -20t21.5 -48t-21.5 -48t-49.5 -20z" />
    <glyph glyph-name="n" unicode="n" 
d="M55 0v465h113v-64q17 22 37 39t44.5 26.5t52.5 9.5q41 0 75 -19.5t55 -62.5t21 -113v-281h-113v279q0 39 -8 63t-23.5 35.5t-36.5 11.5q-19 0 -37.5 -7.5t-33.5 -22.5t-24 -35.5t-9 -46.5v-277h-113z" />
    <glyph glyph-name="nacute" unicode="&#x144;" 
d="M55 0v465h113v-64q17 22 37 39t44.5 26.5t52.5 9.5q41 0 75 -19.5t55 -62.5t21 -113v-281h-113v279q0 39 -8 63t-23.5 35.5t-36.5 11.5q-19 0 -37.5 -7.5t-33.5 -22.5t-24 -35.5t-9 -46.5v-277h-113zM246 504l-52 33l83 166l79 -57z" />
    <glyph glyph-name="ncaron" unicode="&#x148;" 
d="M55 0v465h113v-64q17 22 37 39t44.5 26.5t52.5 9.5q41 0 75 -19.5t55 -62.5t21 -113v-281h-113v279q0 39 -8 63t-23.5 35.5t-36.5 11.5q-19 0 -37.5 -7.5t-33.5 -22.5t-24 -35.5t-9 -46.5v-277h-113zM148 704l110 -103l112 103l53 -49l-145 -139h-38l-145 139z" />
    <glyph glyph-name="uni0146" unicode="&#x146;" 
d="M55 0v465h113v-64q17 22 37 39t44.5 26.5t52.5 9.5q41 0 75 -19.5t55 -62.5t21 -113v-281h-113v279q0 39 -8 63t-23.5 35.5t-36.5 11.5q-19 0 -37.5 -7.5t-33.5 -22.5t-24 -35.5t-9 -46.5v-277h-113zM242 -295l-55 46q25 23 38 46t13 38q0 13 -10 24.5t-20.5 25.5
t-10.5 35q0 30 21 46.5t48 16.5q35 0 55.5 -25.5t20.5 -65.5q0 -28 -10.5 -58t-33 -62t-56.5 -67z" />
    <glyph glyph-name="uni1E45" unicode="&#x1e45;" 
d="M55 0v465h113v-64q17 22 37 39t44.5 26.5t52.5 9.5q41 0 75 -19.5t55 -62.5t21 -113v-281h-113v279q0 39 -8 63t-23.5 35.5t-36.5 11.5q-19 0 -37.5 -7.5t-33.5 -22.5t-24 -35.5t-9 -46.5v-277h-113zM262 542q-29 0 -50 20t-21 48q0 30 20 49t51 19q28 0 49.5 -20
t21.5 -48t-21.5 -48t-49.5 -20z" />
    <glyph glyph-name="uni1E47" unicode="&#x1e47;" 
d="M55 0v465h113v-64q17 22 37 39t44.5 26.5t52.5 9.5q41 0 75 -19.5t55 -62.5t21 -113v-281h-113v279q0 39 -8 63t-23.5 35.5t-36.5 11.5q-19 0 -37.5 -7.5t-33.5 -22.5t-24 -35.5t-9 -46.5v-277h-113zM258 -170q-29 0 -50 20t-21 48q0 30 20 49t51 19q28 0 49.5 -20
t21.5 -48t-21.5 -48t-49.5 -20z" />
    <glyph glyph-name="eng" unicode="&#x14b;" 
d="M268 -179q-28 0 -59.5 11.5t-56.5 33.5l46 90q6 -2 8.5 -7.5t7 -12t16 -11.5t34.5 -5q26 0 44 13.5t27 41t9 68.5v239q0 27 -6 46.5t-16.5 32t-24 18.5t-28.5 6q-18 0 -33.5 -5.5t-28 -15.5t-22 -24t-14.5 -31.5t-5 -38.5v-270h-113v465h113v-64q12 16 27 29.5t33 23.5
t37.5 15.5t38.5 5.5q32 0 59.5 -10.5t48 -33t32.5 -59t12 -89.5v-230q0 -61 -14.5 -105t-40.5 -72t-59.5 -41.5t-71.5 -13.5z" />
    <glyph glyph-name="uni1E49" unicode="&#x1e49;" 
d="M55 0v465h113v-64q17 22 37 39t44.5 26.5t52.5 9.5q41 0 75 -19.5t55 -62.5t21 -113v-281h-113v279q0 39 -8 63t-23.5 35.5t-36.5 11.5q-19 0 -37.5 -7.5t-33.5 -22.5t-24 -35.5t-9 -46.5v-277h-113zM120 -156v76h280v-76h-280z" />
    <glyph glyph-name="ntilde" unicode="&#xf1;" 
d="M55 0v465h113v-64q17 22 37 39t44.5 26.5t52.5 9.5q41 0 75 -19.5t55 -62.5t21 -113v-281h-113v279q0 39 -8 63t-23.5 35.5t-36.5 11.5q-19 0 -37.5 -7.5t-33.5 -22.5t-24 -35.5t-9 -46.5v-277h-113zM372 668l60 -31q-20 -43 -44 -61.5t-54 -18.5q-29 0 -48 9.5t-33 22
t-25.5 21.5t-25.5 9q-17 0 -29.5 -12.5t-23.5 -36.5l-62 29q17 43 44 65t67 22q26 0 44 -9t31.5 -21t26 -21t27.5 -9q17 0 26 10.5t19 31.5z" />
    <glyph glyph-name="o" unicode="o" 
d="M249 -10q-62 0 -112.5 30.5t-79.5 85.5t-29 127q0 69 29 124t79.5 87t112.5 32q63 0 113.5 -32t80 -87t29.5 -124q0 -72 -29.5 -127t-80 -85.5t-113.5 -30.5zM249 80q33 0 57 19.5t38.5 54t14.5 79.5q0 47 -14.5 81t-38.5 52.5t-57 18.5q-30 0 -54.5 -18.5t-39 -52.5
t-14.5 -81q0 -45 14 -79.5t38.5 -54t55.5 -19.5z" />
    <glyph glyph-name="oacute" unicode="&#xf3;" 
d="M249 -10q-62 0 -112.5 30.5t-79.5 85.5t-29 127q0 69 29 124t79.5 87t112.5 32q63 0 113.5 -32t80 -87t29.5 -124q0 -72 -29.5 -127t-80 -85.5t-113.5 -30.5zM249 80q33 0 57 19.5t38.5 54t14.5 79.5q0 47 -14.5 81t-38.5 52.5t-57 18.5q-30 0 -54.5 -18.5t-39 -52.5
t-14.5 -81q0 -45 14 -79.5t38.5 -54t55.5 -19.5zM234 504l-52 33l83 166l79 -57z" />
    <glyph glyph-name="obreve" unicode="&#x14f;" 
d="M249 -10q-62 0 -112.5 30.5t-79.5 85.5t-29 127q0 69 29 124t79.5 87t112.5 32q63 0 113.5 -32t80 -87t29.5 -124q0 -72 -29.5 -127t-80 -85.5t-113.5 -30.5zM249 80q33 0 57 19.5t38.5 54t14.5 79.5q0 47 -14.5 81t-38.5 52.5t-57 18.5q-30 0 -54.5 -18.5t-39 -52.5
t-14.5 -81q0 -45 14 -79.5t38.5 -54t55.5 -19.5zM332 668l70 -32q-24 -51 -62.5 -78.5t-88.5 -27.5t-88.5 27.5t-62.5 78.5l70 32q16 -36 35 -54t46 -18q18 0 33 7.5t27 24t21 40.5z" />
    <glyph glyph-name="ocircumflex" unicode="&#xf4;" 
d="M249 -10q-62 0 -112.5 30.5t-79.5 85.5t-29 127q0 69 29 124t79.5 87t112.5 32q63 0 113.5 -32t80 -87t29.5 -124q0 -72 -29.5 -127t-80 -85.5t-113.5 -30.5zM249 80q33 0 57 19.5t38.5 54t14.5 79.5q0 47 -14.5 81t-38.5 52.5t-57 18.5q-30 0 -54.5 -18.5t-39 -52.5
t-14.5 -81q0 -45 14 -79.5t38.5 -54t55.5 -19.5zM138 499l-53 48l145 139h38l145 -139l-53 -48l-112 103z" />
    <glyph glyph-name="uni1ED1" unicode="&#x1ed1;" 
d="M249 -10q-62 0 -112.5 30.5t-79.5 85.5t-29 127q0 69 29 124t79.5 87t112.5 32q63 0 113.5 -32t80 -87t29.5 -124q0 -72 -29.5 -127t-80 -85.5t-113.5 -30.5zM249 80q33 0 57 19.5t38.5 54t14.5 79.5q0 47 -14.5 81t-38.5 52.5t-57 18.5q-30 0 -54.5 -18.5t-39 -52.5
t-14.5 -81q0 -45 14 -79.5t38.5 -54t55.5 -19.5zM139 501l-53 48l145 139h38l145 -139l-53 -48l-112 103zM394 629l-52 33l83 166l79 -57z" />
    <glyph glyph-name="uni1ED9" unicode="&#x1ed9;" 
d="M249 -10q-62 0 -112.5 30.5t-79.5 85.5t-29 127q0 69 29 124t79.5 87t112.5 32q63 0 113.5 -32t80 -87t29.5 -124q0 -72 -29.5 -127t-80 -85.5t-113.5 -30.5zM249 80q33 0 57 19.5t38.5 54t14.5 79.5q0 47 -14.5 81t-38.5 52.5t-57 18.5q-30 0 -54.5 -18.5t-39 -52.5
t-14.5 -81q0 -45 14 -79.5t38.5 -54t55.5 -19.5zM248 -170q-29 0 -50 20t-21 48q0 30 20 49t51 19q28 0 49.5 -20t21.5 -48t-21.5 -48t-49.5 -20zM138 499l-53 48l145 139h38l145 -139l-53 -48l-112 103z" />
    <glyph glyph-name="uni1ED3" unicode="&#x1ed3;" 
d="M249 -10q-62 0 -112.5 30.5t-79.5 85.5t-29 127q0 69 29 124t79.5 87t112.5 32q63 0 113.5 -32t80 -87t29.5 -124q0 -72 -29.5 -127t-80 -85.5t-113.5 -30.5zM249 80q33 0 57 19.5t38.5 54t14.5 79.5q0 47 -14.5 81t-38.5 52.5t-57 18.5q-30 0 -54.5 -18.5t-39 -52.5
t-14.5 -81q0 -45 14 -79.5t38.5 -54t55.5 -19.5zM140 501l-53 48l145 139h38l145 -139l-53 -48l-112 103zM375 653l-110 142l79 57l83 -166z" />
    <glyph glyph-name="uni1ED5" unicode="&#x1ed5;" 
d="M249 -10q-62 0 -112.5 30.5t-79.5 85.5t-29 127q0 69 29 124t79.5 87t112.5 32q63 0 113.5 -32t80 -87t29.5 -124q0 -72 -29.5 -127t-80 -85.5t-113.5 -30.5zM249 80q33 0 57 19.5t38.5 54t14.5 79.5q0 47 -14.5 81t-38.5 52.5t-57 18.5q-30 0 -54.5 -18.5t-39 -52.5
t-14.5 -81q0 -45 14 -79.5t38.5 -54t55.5 -19.5zM139 501l-53 48l145 139h38l145 -139l-53 -48l-112 103zM493 750q0 -21 -10 -36t-23.5 -26.5t-24 -23.5t-10.5 -28v-8h-70v28q0 16 9.5 28t22 22t22 20t9.5 19q0 14 -9 21.5t-23 7.5q-19 0 -33 -7.5t-23 -29.5l-41 54
q19 24 47 35t55 11q31 -1 54 -12t35.5 -30t12.5 -45z" />
    <glyph glyph-name="uni1ED7" unicode="&#x1ed7;" 
d="M249 -10q-62 0 -112.5 30.5t-79.5 85.5t-29 127q0 69 29 124t79.5 87t112.5 32q63 0 113.5 -32t80 -87t29.5 -124q0 -72 -29.5 -127t-80 -85.5t-113.5 -30.5zM249 80q33 0 57 19.5t38.5 54t14.5 79.5q0 47 -14.5 81t-38.5 52.5t-57 18.5q-30 0 -54.5 -18.5t-39 -52.5
t-14.5 -81q0 -45 14 -79.5t38.5 -54t55.5 -19.5zM138 501l-53 48l145 139h38l145 -139l-53 -48l-112 103zM329 824l57 -26q-18 -41 -40.5 -59t-48.5 -18q-21 0 -36.5 8t-28 18.5t-23 18.5t-22.5 8q-13 0 -23.5 -10.5t-17.5 -28.5l-57 26q14 36 39.5 57t50.5 21q20 0 36.5 -8
t30.5 -19t25 -19t21 -8q11 0 19.5 8.5t17.5 30.5z" />
    <glyph glyph-name="uni020D" unicode="&#x20d;" 
d="M249 -10q-62 0 -112.5 30.5t-79.5 85.5t-29 127q0 69 29 124t79.5 87t112.5 32q63 0 113.5 -32t80 -87t29.5 -124q0 -72 -29.5 -127t-80 -85.5t-113.5 -30.5zM249 80q33 0 57 19.5t38.5 54t14.5 79.5q0 47 -14.5 81t-38.5 52.5t-57 18.5q-30 0 -54.5 -18.5t-39 -52.5
t-14.5 -81q0 -45 14 -79.5t38.5 -54t55.5 -19.5zM186 504l-110 142l79 57l83 -166zM346 504l-110 142l79 57l83 -166z" />
    <glyph glyph-name="odieresis" unicode="&#xf6;" 
d="M249 -10q-62 0 -112.5 30.5t-79.5 85.5t-29 127q0 69 29 124t79.5 87t112.5 32q63 0 113.5 -32t80 -87t29.5 -124q0 -72 -29.5 -127t-80 -85.5t-113.5 -30.5zM249 80q33 0 57 19.5t38.5 54t14.5 79.5q0 47 -14.5 81t-38.5 52.5t-57 18.5q-30 0 -54.5 -18.5t-39 -52.5
t-14.5 -81q0 -45 14 -79.5t38.5 -54t55.5 -19.5zM159 548q-27 0 -47 19t-20 45t20 45.5t47 19.5q30 0 49 -20t19 -45q0 -26 -20 -45t-48 -19zM343 548q-27 0 -46.5 18.5t-19.5 45.5t19.5 46t46.5 19q31 0 49 -20.5t18 -44.5q0 -26 -19.5 -45t-47.5 -19z" />
    <glyph glyph-name="uni022B" unicode="&#x22b;" 
d="M249 -10q-62 0 -112.5 30.5t-79.5 85.5t-29 127q0 69 29 124t79.5 87t112.5 32q63 0 113.5 -32t80 -87t29.5 -124q0 -72 -29.5 -127t-80 -85.5t-113.5 -30.5zM249 80q33 0 57 19.5t38.5 54t14.5 79.5q0 47 -14.5 81t-38.5 52.5t-57 18.5q-30 0 -54.5 -18.5t-39 -52.5
t-14.5 -81q0 -45 14 -79.5t38.5 -54t55.5 -19.5zM159 548q-27 0 -47 19t-20 45t20 45.5t47 19.5q30 0 49 -20t19 -45q0 -26 -20 -45t-48 -19zM343 548q-27 0 -46.5 18.5t-19.5 45.5t19.5 46t46.5 19q31 0 49 -20.5t18 -44.5q0 -26 -19.5 -45t-47.5 -19zM110 715v76h280v-76
h-280z" />
    <glyph glyph-name="uni0231" unicode="&#x231;" 
d="M249 -10q-62 0 -112.5 30.5t-79.5 85.5t-29 127q0 69 29 124t79.5 87t112.5 32q63 0 113.5 -32t80 -87t29.5 -124q0 -72 -29.5 -127t-80 -85.5t-113.5 -30.5zM249 80q33 0 57 19.5t38.5 54t14.5 79.5q0 47 -14.5 81t-38.5 52.5t-57 18.5q-30 0 -54.5 -18.5t-39 -52.5
t-14.5 -81q0 -45 14 -79.5t38.5 -54t55.5 -19.5zM250 542q-29 0 -50 20t-21 48q0 30 20 49t51 19q28 0 49.5 -20t21.5 -48t-21.5 -48t-49.5 -20zM110 715v76h280v-76h-280z" />
    <glyph glyph-name="uni1ECD" unicode="&#x1ecd;" 
d="M249 -10q-62 0 -112.5 30.5t-79.5 85.5t-29 127q0 69 29 124t79.5 87t112.5 32q63 0 113.5 -32t80 -87t29.5 -124q0 -72 -29.5 -127t-80 -85.5t-113.5 -30.5zM249 80q33 0 57 19.5t38.5 54t14.5 79.5q0 47 -14.5 81t-38.5 52.5t-57 18.5q-30 0 -54.5 -18.5t-39 -52.5
t-14.5 -81q0 -45 14 -79.5t38.5 -54t55.5 -19.5zM248 -170q-29 0 -50 20t-21 48q0 30 20 49t51 19q28 0 49.5 -20t21.5 -48t-21.5 -48t-49.5 -20z" />
    <glyph glyph-name="ograve" unicode="&#xf2;" 
d="M249 -10q-62 0 -112.5 30.5t-79.5 85.5t-29 127q0 69 29 124t79.5 87t112.5 32q63 0 113.5 -32t80 -87t29.5 -124q0 -72 -29.5 -127t-80 -85.5t-113.5 -30.5zM249 80q33 0 57 19.5t38.5 54t14.5 79.5q0 47 -14.5 81t-38.5 52.5t-57 18.5q-30 0 -54.5 -18.5t-39 -52.5
t-14.5 -81q0 -45 14 -79.5t38.5 -54t55.5 -19.5zM244 504l-110 142l79 57l83 -166z" />
    <glyph glyph-name="uni1ECF" unicode="&#x1ecf;" 
d="M249 -10q-62 0 -112.5 30.5t-79.5 85.5t-29 127q0 69 29 124t79.5 87t112.5 32q63 0 113.5 -32t80 -87t29.5 -124q0 -72 -29.5 -127t-80 -85.5t-113.5 -30.5zM249 80q33 0 57 19.5t38.5 54t14.5 79.5q0 47 -14.5 81t-38.5 52.5t-57 18.5q-30 0 -54.5 -18.5t-39 -52.5
t-14.5 -81q0 -45 14 -79.5t38.5 -54t55.5 -19.5zM363 641q0 -21 -10 -36t-23.5 -26.5t-24 -23.5t-10.5 -28v-8h-70v28q0 16 9.5 28t22 22t22 20t9.5 19q0 14 -9 21.5t-23 7.5q-19 0 -33 -7.5t-23 -29.5l-41 54q19 24 47 35t55 11q31 -1 54 -12t35.5 -30t12.5 -45z" />
    <glyph glyph-name="ohorn" unicode="&#x1a1;" 
d="M249 -10q-62 0 -112.5 30.5t-79.5 85.5t-29 127q0 69 29 124t79.5 87t112.5 32q63 0 113.5 -32t80 -87t29.5 -124q0 -72 -29.5 -127t-80 -85.5t-113.5 -30.5zM249 80q33 0 57 19.5t38.5 54t14.5 79.5q0 47 -14.5 81t-38.5 52.5t-57 18.5q-30 0 -54.5 -18.5t-39 -52.5
t-14.5 -81q0 -45 14 -79.5t38.5 -54t55.5 -19.5zM462 538q0 -63 -12.5 -99t-36.5 -51t-60 -15v69q12 0 17.5 23t5.5 73h86z" />
    <glyph glyph-name="uni1EDB" unicode="&#x1edb;" 
d="M249 -10q-62 0 -112.5 30.5t-79.5 85.5t-29 127q0 69 29 124t79.5 87t112.5 32q63 0 113.5 -32t80 -87t29.5 -124q0 -72 -29.5 -127t-80 -85.5t-113.5 -30.5zM249 80q33 0 57 19.5t38.5 54t14.5 79.5q0 47 -14.5 81t-38.5 52.5t-57 18.5q-30 0 -54.5 -18.5t-39 -52.5
t-14.5 -81q0 -45 14 -79.5t38.5 -54t55.5 -19.5zM462 538q0 -63 -12.5 -99t-36.5 -51t-60 -15v69q12 0 17.5 23t5.5 73h86zM234 504l-52 33l83 166l79 -57z" />
    <glyph glyph-name="uni1EE3" unicode="&#x1ee3;" 
d="M249 -10q-62 0 -112.5 30.5t-79.5 85.5t-29 127q0 69 29 124t79.5 87t112.5 32q63 0 113.5 -32t80 -87t29.5 -124q0 -72 -29.5 -127t-80 -85.5t-113.5 -30.5zM249 80q33 0 57 19.5t38.5 54t14.5 79.5q0 47 -14.5 81t-38.5 52.5t-57 18.5q-30 0 -54.5 -18.5t-39 -52.5
t-14.5 -81q0 -45 14 -79.5t38.5 -54t55.5 -19.5zM462 538q0 -63 -12.5 -99t-36.5 -51t-60 -15v69q12 0 17.5 23t5.5 73h86zM248 -170q-29 0 -50 20t-21 48q0 30 20 49t51 19q28 0 49.5 -20t21.5 -48t-21.5 -48t-49.5 -20z" />
    <glyph glyph-name="uni1EDD" unicode="&#x1edd;" 
d="M249 -10q-62 0 -112.5 30.5t-79.5 85.5t-29 127q0 69 29 124t79.5 87t112.5 32q63 0 113.5 -32t80 -87t29.5 -124q0 -72 -29.5 -127t-80 -85.5t-113.5 -30.5zM249 80q33 0 57 19.5t38.5 54t14.5 79.5q0 47 -14.5 81t-38.5 52.5t-57 18.5q-30 0 -54.5 -18.5t-39 -52.5
t-14.5 -81q0 -45 14 -79.5t38.5 -54t55.5 -19.5zM462 538q0 -63 -12.5 -99t-36.5 -51t-60 -15v69q12 0 17.5 23t5.5 73h86zM244 504l-110 142l79 57l83 -166z" />
    <glyph glyph-name="uni1EDF" unicode="&#x1edf;" 
d="M249 -10q-62 0 -112.5 30.5t-79.5 85.5t-29 127q0 69 29 124t79.5 87t112.5 32q63 0 113.5 -32t80 -87t29.5 -124q0 -72 -29.5 -127t-80 -85.5t-113.5 -30.5zM249 80q33 0 57 19.5t38.5 54t14.5 79.5q0 47 -14.5 81t-38.5 52.5t-57 18.5q-30 0 -54.5 -18.5t-39 -52.5
t-14.5 -81q0 -45 14 -79.5t38.5 -54t55.5 -19.5zM462 538q0 -63 -12.5 -99t-36.5 -51t-60 -15v69q12 0 17.5 23t5.5 73h86zM363 641q0 -21 -10 -36t-23.5 -26.5t-24 -23.5t-10.5 -28v-8h-70v28q0 16 9.5 28t22 22t22 20t9.5 19q0 14 -9 21.5t-23 7.5q-19 0 -33 -7.5
t-23 -29.5l-41 54q19 24 47 35t55 11q31 -1 54 -12t35.5 -30t12.5 -45z" />
    <glyph glyph-name="uni1EE1" unicode="&#x1ee1;" 
d="M249 -10q-62 0 -112.5 30.5t-79.5 85.5t-29 127q0 69 29 124t79.5 87t112.5 32q63 0 113.5 -32t80 -87t29.5 -124q0 -72 -29.5 -127t-80 -85.5t-113.5 -30.5zM249 80q33 0 57 19.5t38.5 54t14.5 79.5q0 47 -14.5 81t-38.5 52.5t-57 18.5q-30 0 -54.5 -18.5t-39 -52.5
t-14.5 -81q0 -45 14 -79.5t38.5 -54t55.5 -19.5zM462 538q0 -63 -12.5 -99t-36.5 -51t-60 -15v69q12 0 17.5 23t5.5 73h86zM360 668l60 -31q-20 -43 -44 -61.5t-54 -18.5q-29 0 -48 9.5t-33 22t-25.5 21.5t-25.5 9q-17 0 -29.5 -12.5t-23.5 -36.5l-62 29q17 43 44 65t67 22
q26 0 44 -9t31.5 -21t26 -21t27.5 -9q17 0 26 10.5t19 31.5z" />
    <glyph glyph-name="ohungarumlaut" unicode="&#x151;" 
d="M249 -10q-62 0 -112.5 30.5t-79.5 85.5t-29 127q0 69 29 124t79.5 87t112.5 32q63 0 113.5 -32t80 -87t29.5 -124q0 -72 -29.5 -127t-80 -85.5t-113.5 -30.5zM249 80q33 0 57 19.5t38.5 54t14.5 79.5q0 47 -14.5 81t-38.5 52.5t-57 18.5q-30 0 -54.5 -18.5t-39 -52.5
t-14.5 -81q0 -45 14 -79.5t38.5 -54t55.5 -19.5zM332 517l-59 36l83 161l81 -56zM177 517l-59 36l83 161l81 -56z" />
    <glyph glyph-name="uni020F" unicode="&#x20f;" 
d="M249 -10q-62 0 -112.5 30.5t-79.5 85.5t-29 127q0 69 29 124t79.5 87t112.5 32q63 0 113.5 -32t80 -87t29.5 -124q0 -72 -29.5 -127t-80 -85.5t-113.5 -30.5zM249 80q33 0 57 19.5t38.5 54t14.5 79.5q0 47 -14.5 81t-38.5 52.5t-57 18.5q-30 0 -54.5 -18.5t-39 -52.5
t-14.5 -81q0 -45 14 -79.5t38.5 -54t55.5 -19.5zM171 520l-70 32q24 51 62.5 78.5t88.5 27.5t88.5 -27.5t62.5 -78.5l-70 -32q-16 36 -35 54t-46 18q-18 0 -33 -7.5t-27 -23.5t-21 -41z" />
    <glyph glyph-name="omacron" unicode="&#x14d;" 
d="M249 -10q-62 0 -112.5 30.5t-79.5 85.5t-29 127q0 69 29 124t79.5 87t112.5 32q63 0 113.5 -32t80 -87t29.5 -124q0 -72 -29.5 -127t-80 -85.5t-113.5 -30.5zM249 80q33 0 57 19.5t38.5 54t14.5 79.5q0 47 -14.5 81t-38.5 52.5t-57 18.5q-30 0 -54.5 -18.5t-39 -52.5
t-14.5 -81q0 -45 14 -79.5t38.5 -54t55.5 -19.5zM110 564v76h280v-76h-280z" />
    <glyph glyph-name="uni1E53" unicode="&#x1e53;" 
d="M249 -10q-62 0 -112.5 30.5t-79.5 85.5t-29 127q0 69 29 124t79.5 87t112.5 32q63 0 113.5 -32t80 -87t29.5 -124q0 -72 -29.5 -127t-80 -85.5t-113.5 -30.5zM249 80q33 0 57 19.5t38.5 54t14.5 79.5q0 47 -14.5 81t-38.5 52.5t-57 18.5q-30 0 -54.5 -18.5t-39 -52.5
t-14.5 -81q0 -45 14 -79.5t38.5 -54t55.5 -19.5zM110 564v76h280v-76h-280zM234 653l-52 33l83 166l79 -57z" />
    <glyph glyph-name="uni1E51" unicode="&#x1e51;" 
d="M249 -10q-62 0 -112.5 30.5t-79.5 85.5t-29 127q0 69 29 124t79.5 87t112.5 32q63 0 113.5 -32t80 -87t29.5 -124q0 -72 -29.5 -127t-80 -85.5t-113.5 -30.5zM249 80q33 0 57 19.5t38.5 54t14.5 79.5q0 47 -14.5 81t-38.5 52.5t-57 18.5q-30 0 -54.5 -18.5t-39 -52.5
t-14.5 -81q0 -45 14 -79.5t38.5 -54t55.5 -19.5zM110 564v76h280v-76h-280zM244 653l-110 142l79 57l83 -166z" />
    <glyph glyph-name="uni01EB" unicode="&#x1eb;" 
d="M249 -10q-62 0 -112.5 30.5t-79.5 85.5t-29 127q0 69 29 124t79.5 87t112.5 32q63 0 113.5 -32t80 -87t29.5 -124q0 -72 -29.5 -127t-80 -85.5t-113.5 -30.5zM249 80q33 0 57 19.5t38.5 54t14.5 79.5q0 47 -14.5 81t-38.5 52.5t-57 18.5q-30 0 -54.5 -18.5t-39 -52.5
t-14.5 -81q0 -45 14 -79.5t38.5 -54t55.5 -19.5zM366 -125l-45 -88q-45 12 -74 29t-43.5 38.5t-14.5 44.5q0 25 16 51.5t46.5 52.5t75.5 49l40 -27q-21 -18 -36.5 -35.5t-23.5 -32.5t-8 -28q0 -19 17 -32.5t50 -21.5z" />
    <glyph glyph-name="oslash" unicode="&#xf8;" 
d="M139 -68l-80 43l296 548l82 -44zM249 -10q-62 0 -112.5 30.5t-79.5 85.5t-29 127q0 69 29 124t79.5 87t112.5 32q63 0 113.5 -32t80 -87t29.5 -124q0 -72 -29.5 -127t-80 -85.5t-113.5 -30.5zM249 80q33 0 57 19.5t38.5 54t14.5 79.5q0 47 -14.5 81t-38.5 52.5t-57 18.5
q-30 0 -54.5 -18.5t-39 -52.5t-14.5 -81q0 -45 14 -79.5t38.5 -54t55.5 -19.5z" />
    <glyph glyph-name="oslashacute" unicode="&#x1ff;" 
d="M139 -68l-80 43l296 548l82 -44zM249 -10q-62 0 -112.5 30.5t-79.5 85.5t-29 127q0 69 29 124t79.5 87t112.5 32q63 0 113.5 -32t80 -87t29.5 -124q0 -72 -29.5 -127t-80 -85.5t-113.5 -30.5zM249 80q33 0 57 19.5t38.5 54t14.5 79.5q0 47 -14.5 81t-38.5 52.5t-57 18.5
q-30 0 -54.5 -18.5t-39 -52.5t-14.5 -81q0 -45 14 -79.5t38.5 -54t55.5 -19.5zM234 504l-52 33l83 166l79 -57z" />
    <glyph glyph-name="otilde" unicode="&#xf5;" 
d="M249 -10q-62 0 -112.5 30.5t-79.5 85.5t-29 127q0 69 29 124t79.5 87t112.5 32q63 0 113.5 -32t80 -87t29.5 -124q0 -72 -29.5 -127t-80 -85.5t-113.5 -30.5zM249 80q33 0 57 19.5t38.5 54t14.5 79.5q0 47 -14.5 81t-38.5 52.5t-57 18.5q-30 0 -54.5 -18.5t-39 -52.5
t-14.5 -81q0 -45 14 -79.5t38.5 -54t55.5 -19.5zM360 668l60 -31q-20 -43 -44 -61.5t-54 -18.5q-29 0 -48 9.5t-33 22t-25.5 21.5t-25.5 9q-17 0 -29.5 -12.5t-23.5 -36.5l-62 29q17 43 44 65t67 22q26 0 44 -9t31.5 -21t26 -21t27.5 -9q17 0 26 10.5t19 31.5z" />
    <glyph glyph-name="uni1E4D" unicode="&#x1e4d;" 
d="M249 -10q-62 0 -112.5 30.5t-79.5 85.5t-29 127q0 69 29 124t79.5 87t112.5 32q63 0 113.5 -32t80 -87t29.5 -124q0 -72 -29.5 -127t-80 -85.5t-113.5 -30.5zM249 80q33 0 57 19.5t38.5 54t14.5 79.5q0 47 -14.5 81t-38.5 52.5t-57 18.5q-30 0 -54.5 -18.5t-39 -52.5
t-14.5 -81q0 -45 14 -79.5t38.5 -54t55.5 -19.5zM360 668l60 -31q-20 -43 -44 -61.5t-54 -18.5q-29 0 -48 9.5t-33 22t-25.5 21.5t-25.5 9q-17 0 -29.5 -12.5t-23.5 -36.5l-62 29q17 43 44 65t67 22q26 0 44 -9t31.5 -21t26 -21t27.5 -9q17 0 26 10.5t19 31.5zM235 685
l-52 33l83 166l79 -57z" />
    <glyph glyph-name="uni1E4F" unicode="&#x1e4f;" 
d="M249 -10q-62 0 -112.5 30.5t-79.5 85.5t-29 127q0 69 29 124t79.5 87t112.5 32q63 0 113.5 -32t80 -87t29.5 -124q0 -72 -29.5 -127t-80 -85.5t-113.5 -30.5zM249 80q33 0 57 19.5t38.5 54t14.5 79.5q0 47 -14.5 81t-38.5 52.5t-57 18.5q-30 0 -54.5 -18.5t-39 -52.5
t-14.5 -81q0 -45 14 -79.5t38.5 -54t55.5 -19.5zM360 668l60 -31q-20 -43 -44 -61.5t-54 -18.5q-29 0 -48 9.5t-33 22t-25.5 21.5t-25.5 9q-17 0 -29.5 -12.5t-23.5 -36.5l-62 29q17 43 44 65t67 22q26 0 44 -9t31.5 -21t26 -21t27.5 -9q17 0 26 10.5t19 31.5zM159 729
q-27 0 -47 19t-20 45t20 45.5t47 19.5q30 0 49 -20t19 -45q0 -26 -20 -45t-48 -19zM343 729q-27 0 -46.5 18.5t-19.5 45.5t19.5 46t46.5 19q31 0 49 -20.5t18 -44.5q0 -26 -19.5 -45t-47.5 -19z" />
    <glyph glyph-name="uni022D" unicode="&#x22d;" 
d="M249 -10q-62 0 -112.5 30.5t-79.5 85.5t-29 127q0 69 29 124t79.5 87t112.5 32q63 0 113.5 -32t80 -87t29.5 -124q0 -72 -29.5 -127t-80 -85.5t-113.5 -30.5zM249 80q33 0 57 19.5t38.5 54t14.5 79.5q0 47 -14.5 81t-38.5 52.5t-57 18.5q-30 0 -54.5 -18.5t-39 -52.5
t-14.5 -81q0 -45 14 -79.5t38.5 -54t55.5 -19.5zM360 668l60 -31q-20 -43 -44 -61.5t-54 -18.5q-29 0 -48 9.5t-33 22t-25.5 21.5t-25.5 9q-17 0 -29.5 -12.5t-23.5 -36.5l-62 29q17 43 44 65t67 22q26 0 44 -9t31.5 -21t26 -21t27.5 -9q17 0 26 10.5t19 31.5zM110 745v76
h280v-76h-280z" />
    <glyph glyph-name="oe" unicode="&#x153;" 
d="M362 -12q-28 0 -55 8.5t-50 29.5q-22 -21 -45 -29.5t-50 -8.5q-29 0 -56.5 11.5t-49.5 39t-35.5 74.5t-13.5 119q0 88 22.5 141.5t59.5 77.5t79 24q28 0 50 -10t40 -31q16 19 39.5 30t49.5 11q46 0 79 -22.5t50.5 -65t17.5 -104.5v-72h-209q1 -57 11.5 -87.5t29.5 -42
t44 -11.5q23 0 42 7.5t36 28.5l42 -59q-27 -31 -57 -45t-71 -14zM170 74q9 0 16 2.5t12.5 7t8 10t2.5 12.5q0 5 -0.5 9t-2.5 13q-2 17 -4 32.5t-3.5 34t-1.5 45.5q0 37 3 60.5t6.5 36.5t3.5 17q0 6 -2.5 11.5t-8 11t-13 8.5t-17.5 3q-18 0 -34 -15.5t-25.5 -47t-9.5 -81.5
q0 -52 6.5 -90t22 -59t41.5 -21zM286 288h129q-1 33 -7 55t-19 33.5t-35 11.5q-21 0 -35.5 -13.5t-22.5 -36t-10 -50.5z" />
    <glyph glyph-name="p" unicode="p" 
d="M48 -167l-1 633h112v-65q16 26 35.5 42.5t44 24.5t51.5 8q38 0 71.5 -15.5t58.5 -46.5t39.5 -76.5t14.5 -106.5t-15 -107t-41.5 -76t-60 -45t-69.5 -15q-25 0 -48.5 6t-43.5 17.5t-33 28.5v-207h-115zM257 76q22 0 41 8t33.5 26.5t22.5 49.5t8 77t-12 79.5t-34 51.5
t-53 19q-24 1 -42.5 -8t-31.5 -29t-20 -51t-7 -75q1 -30 5 -54t11.5 -41.5t18.5 -29t26 -17.5t34 -6z" />
    <glyph glyph-name="thorn" unicode="&#xfe;" 
d="M47 671h111h10v-9q-6 -6 -7.5 -13t-1.5 -24v-224q16 26 35.5 42.5t44 24.5t51.5 8q38 0 71.5 -15.5t58.5 -46.5t39.5 -76.5t14.5 -106.5t-15 -107t-41.5 -76t-60 -45t-69.5 -15q-25 0 -48.5 6t-43.5 17.5t-33 28.5v-207h-115zM257 76q22 0 41 8t33.5 26.5t22.5 49.5t8 77
t-12 79.5t-34 51.5t-53 19q-24 1 -42.5 -8t-31.5 -29t-20 -51t-7 -75q1 -30 5 -54t11.5 -41.5t18.5 -29t26 -17.5t34 -6v0z" />
    <glyph glyph-name="q" unicode="q" 
d="M340 -167v211q-10 -18 -28 -30t-39.5 -18.5t-44.5 -6.5q-47 0 -84.5 17.5t-63.5 49.5t-40 77t-14 99q0 56 14 101t40.5 77t64.5 49t85 17q21 0 37.5 -3.5t30.5 -11t25.5 -18t20.5 -24.5v46h110v-632h-114zM247 76q20 0 37 9t30 28t20 50t7 74t-7 72.5t-20 47t-30 25.5
t-37 8q-22 0 -42 -8.5t-34.5 -27t-22.5 -47.5t-8 -71q0 -41 7.5 -71t21.5 -49.5t33.5 -29.5t44.5 -10z" />
    <glyph glyph-name="r" unicode="r" 
d="M89 465h117l-1 -130l-13 8q4 31 17.5 55t34 42t45 27t50.5 9q39 0 70.5 -12.5t58.5 -40.5l-48 -95l-3 -8l-9 4q-3 8 -6 16.5t-15 19.5q-14 11 -29.5 17t-33.5 6q-24 0 -46 -8t-38.5 -25t-26 -43.5t-9.5 -62.5v-244h-115v465z" />
    <glyph glyph-name="racute" unicode="&#x155;" 
d="M89 465h117l-1 -130l-13 8q4 31 17.5 55t34 42t45 27t50.5 9q39 0 70.5 -12.5t58.5 -40.5l-48 -95l-3 -8l-9 4q-3 8 -6 16.5t-15 19.5q-14 11 -29.5 17t-33.5 6q-24 0 -46 -8t-38.5 -25t-26 -43.5t-9.5 -62.5v-244h-115v465zM268 504l-52 33l83 166l79 -57z" />
    <glyph glyph-name="rcaron" unicode="&#x159;" 
d="M89 465h117l-1 -130l-13 8q4 31 17.5 55t34 42t45 27t50.5 9q39 0 70.5 -12.5t58.5 -40.5l-48 -95l-3 -8l-9 4q-3 8 -6 16.5t-15 19.5q-14 11 -29.5 17t-33.5 6q-24 0 -46 -8t-38.5 -25t-26 -43.5t-9.5 -62.5v-244h-115v465zM170 704l110 -103l112 103l53 -49l-145 -139
h-38l-145 139z" />
    <glyph glyph-name="uni0157" unicode="&#x157;" 
d="M89 465h117l-1 -130l-13 8q4 31 17.5 55t34 42t45 27t50.5 9q39 0 70.5 -12.5t58.5 -40.5l-48 -95l-3 -8l-9 4q-3 8 -6 16.5t-15 19.5q-14 11 -29.5 17t-33.5 6q-24 0 -46 -8t-38.5 -25t-26 -43.5t-9.5 -62.5v-244h-115v465zM270 -295l-55 46q25 23 38 46t13 38
q0 13 -10 24.5t-20.5 25.5t-10.5 35q0 30 21 46.5t48 16.5q35 0 55.5 -25.5t20.5 -65.5q0 -28 -10.5 -58t-33 -62t-56.5 -67z" />
    <glyph glyph-name="uni0211" unicode="&#x211;" 
d="M89 465h117l-1 -130l-13 8q4 31 17.5 55t34 42t45 27t50.5 9q39 0 70.5 -12.5t58.5 -40.5l-48 -95l-3 -8l-9 4q-3 8 -6 16.5t-15 19.5q-14 11 -29.5 17t-33.5 6q-24 0 -46 -8t-38.5 -25t-26 -43.5t-9.5 -62.5v-244h-115v465zM219 504l-110 142l79 57l83 -166zM379 504
l-110 142l79 57l83 -166z" />
    <glyph glyph-name="uni1E5B" unicode="&#x1e5b;" 
d="M89 465h117l-1 -130l-13 8q4 31 17.5 55t34 42t45 27t50.5 9q39 0 70.5 -12.5t58.5 -40.5l-48 -95l-3 -8l-9 4q-3 8 -6 16.5t-15 19.5q-14 11 -29.5 17t-33.5 6q-24 0 -46 -8t-38.5 -25t-26 -43.5t-9.5 -62.5v-244h-115v465zM286 -170q-29 0 -50 20t-21 48q0 30 20 49
t51 19q28 0 49.5 -20t21.5 -48t-21.5 -48t-49.5 -20z" />
    <glyph glyph-name="uni027B" unicode="&#x27b;" 
d="M407 -177q-38 0 -65.5 11t-44.5 33.5t-26 57.5t-11 84v62q-12 -24 -32.5 -42.5t-45 -28.5t-50.5 -10q-33 0 -63 12.5t-58 38.5l44 87l3 8l9 -4q3 -7 7 -14.5t17 -17.5q11 -8 23 -11.5t29 -3.5q19 0 39.5 9.5t38 27.5t28.5 43.5t11 57.5v244h113l-1 -459q0 -30 5 -50.5
t16.5 -31t28.5 -10.5q5 0 10 0.5t10.5 2t9.5 3.5q6 2 8.5 5t4.5 6t4 5l24 -87q-17 -13 -38.5 -20.5t-47.5 -7.5v0z" />
    <glyph glyph-name="uni0213" unicode="&#x213;" 
d="M89 465h117l-1 -130l-13 8q4 31 17.5 55t34 42t45 27t50.5 9q39 0 70.5 -12.5t58.5 -40.5l-48 -95l-3 -8l-9 4q-3 8 -6 16.5t-15 19.5q-14 11 -29.5 17t-33.5 6q-24 0 -46 -8t-38.5 -25t-26 -43.5t-9.5 -62.5v-244h-115v465zM205 520l-70 32q24 51 62.5 78.5t88.5 27.5
t88.5 -27.5t62.5 -78.5l-70 -32q-16 36 -35 54t-46 18q-18 0 -33 -7.5t-27 -23.5t-21 -41z" />
    <glyph glyph-name="uni1E5F" unicode="&#x1e5f;" 
d="M89 465h117l-1 -130l-13 8q4 31 17.5 55t34 42t45 27t50.5 9q39 0 70.5 -12.5t58.5 -40.5l-48 -95l-3 -8l-9 4q-3 8 -6 16.5t-15 19.5q-14 11 -29.5 17t-33.5 6q-24 0 -46 -8t-38.5 -25t-26 -43.5t-9.5 -62.5v-244h-115v465zM148 -156v76h280v-76h-280z" />
    <glyph glyph-name="uni024D" unicode="&#x24d;" 
d="M28 156v89h295v-89h-295zM89 465h117l-1 -130l-13 8q4 31 17.5 55t34 42t45 27t50.5 9q39 0 70.5 -12.5t58.5 -40.5l-48 -95l-3 -8l-9 4q-3 8 -6 16.5t-15 19.5q-14 11 -29.5 17t-33.5 6q-24 0 -46 -8t-38.5 -25t-26 -43.5t-9.5 -62.5v-244h-115v465z" />
    <glyph glyph-name="s" unicode="s" 
d="M259 -11q-42 0 -81 7.5t-72 24t-61 42.5l50 92l4 8l8 -5q3 -7 6 -15.5t15 -19.5q25 -21 57 -33t76 -12q28 0 47.5 6.5t30 18t10.5 26.5q0 12 -6 21t-19 16t-34 14.5t-50 16.5q-51 13 -88.5 32.5t-57.5 47.5t-20 65q0 39 22.5 69t63.5 47.5t97 17.5q29 0 55 -4.5t49.5 -13
t44 -22t38.5 -31.5l-55 -77l-7 -8l-7 6q-1 8 -4.5 15.5t-15.5 18.5q-20 15 -45.5 22t-50.5 7q-34 0 -58.5 -11t-24.5 -34q0 -13 11 -23.5t36.5 -20t67.5 -20.5q56 -15 91.5 -34.5t52 -46.5t16.5 -63q0 -39 -22 -73t-64.5 -54t-105.5 -20v0z" />
    <glyph glyph-name="sacute" unicode="&#x15b;" 
d="M259 -11q-42 0 -81 7.5t-72 24t-61 42.5l50 92l4 8l8 -5q3 -7 6 -15.5t15 -19.5q25 -21 57 -33t76 -12q28 0 47.5 6.5t30 18t10.5 26.5q0 12 -6 21t-19 16t-34 14.5t-50 16.5q-51 13 -88.5 32.5t-57.5 47.5t-20 65q0 39 22.5 69t63.5 47.5t97 17.5q29 0 55 -4.5t49.5 -13
t44 -22t38.5 -31.5l-55 -77l-7 -8l-7 6q-1 8 -4.5 15.5t-15.5 18.5q-20 15 -45.5 22t-50.5 7q-34 0 -58.5 -11t-24.5 -34q0 -13 11 -23.5t36.5 -20t67.5 -20.5q56 -15 91.5 -34.5t52 -46.5t16.5 -63q0 -39 -22 -73t-64.5 -54t-105.5 -20v0zM256 504l-52 33l83 166l79 -57z
" />
    <glyph glyph-name="uni1E65" unicode="&#x1e65;" 
d="M259 -11q-42 0 -81 7.5t-72 24t-61 42.5l50 92l4 8l8 -5q3 -7 6 -15.5t15 -19.5q25 -21 57 -33t76 -12q28 0 47.5 6.5t30 18t10.5 26.5q0 12 -6 21t-19 16t-34 14.5t-50 16.5q-51 13 -88.5 32.5t-57.5 47.5t-20 65q0 39 22.5 69t63.5 47.5t97 17.5q29 0 55 -4.5t49.5 -13
t44 -22t38.5 -31.5l-55 -77l-7 -8l-7 6q-1 8 -4.5 15.5t-15.5 18.5q-20 15 -45.5 22t-50.5 7q-34 0 -58.5 -11t-24.5 -34q0 -13 11 -23.5t36.5 -20t67.5 -20.5q56 -15 91.5 -34.5t52 -46.5t16.5 -63q0 -39 -22 -73t-64.5 -54t-105.5 -20v0zM256 504l-52 33l83 166l79 -57z
M280 715q-29 0 -50 20t-21 48q0 30 20 49t51 19q28 0 49.5 -20t21.5 -48t-21.5 -48t-49.5 -20z" />
    <glyph glyph-name="scaron" unicode="&#x161;" 
d="M259 -11q-42 0 -81 7.5t-72 24t-61 42.5l50 92l4 8l8 -5q3 -7 6 -15.5t15 -19.5q25 -21 57 -33t76 -12q28 0 47.5 6.5t30 18t10.5 26.5q0 12 -6 21t-19 16t-34 14.5t-50 16.5q-51 13 -88.5 32.5t-57.5 47.5t-20 65q0 39 22.5 69t63.5 47.5t97 17.5q29 0 55 -4.5t49.5 -13
t44 -22t38.5 -31.5l-55 -77l-7 -8l-7 6q-1 8 -4.5 15.5t-15.5 18.5q-20 15 -45.5 22t-50.5 7q-34 0 -58.5 -11t-24.5 -34q0 -13 11 -23.5t36.5 -20t67.5 -20.5q56 -15 91.5 -34.5t52 -46.5t16.5 -63q0 -39 -22 -73t-64.5 -54t-105.5 -20v0zM141 704l110 -103l112 103l53 -49
l-145 -139h-38l-145 139z" />
    <glyph glyph-name="uni1E67" unicode="&#x1e67;" 
d="M259 -11q-42 0 -81 7.5t-72 24t-61 42.5l50 92l4 8l8 -5q3 -7 6 -15.5t15 -19.5q25 -21 57 -33t76 -12q28 0 47.5 6.5t30 18t10.5 26.5q0 12 -6 21t-19 16t-34 14.5t-50 16.5q-51 13 -88.5 32.5t-57.5 47.5t-20 65q0 39 22.5 69t63.5 47.5t97 17.5q29 0 55 -4.5t49.5 -13
t44 -22t38.5 -31.5l-55 -77l-7 -8l-7 6q-1 8 -4.5 15.5t-15.5 18.5q-20 15 -45.5 22t-50.5 7q-34 0 -58.5 -11t-24.5 -34q0 -13 11 -23.5t36.5 -20t67.5 -20.5q56 -15 91.5 -34.5t52 -46.5t16.5 -63q0 -39 -22 -73t-64.5 -54t-105.5 -20v0zM141 704l110 -103l112 103l53 -49
l-145 -139h-38l-145 139zM255 682q-29 0 -50 20t-21 48q0 30 20 49t51 19q28 0 49.5 -20t21.5 -48t-21.5 -48t-49.5 -20z" />
    <glyph glyph-name="scedilla" unicode="&#x15f;" 
d="M259 -11q-42 0 -81 7.5t-72 24t-61 42.5l50 92l4 8l8 -5q3 -7 6 -15.5t15 -19.5q25 -21 57 -33t76 -12q28 0 47.5 6.5t30 18t10.5 26.5q0 12 -6 21t-19 16t-34 14.5t-50 16.5q-51 13 -88.5 32.5t-57.5 47.5t-20 65q0 39 22.5 69t63.5 47.5t97 17.5q29 0 55 -4.5t49.5 -13
t44 -22t38.5 -31.5l-55 -77l-7 -8l-7 6q-1 8 -4.5 15.5t-15.5 18.5q-20 15 -45.5 22t-50.5 7q-34 0 -58.5 -11t-24.5 -34q0 -13 11 -23.5t36.5 -20t67.5 -20.5q56 -15 91.5 -34.5t52 -46.5t16.5 -63q0 -39 -22 -73t-64.5 -54t-105.5 -20v0zM270 -205q-31 0 -61.5 8t-62.5 33
l37 66q26 -22 50 -30.5t49 -8.5q18 0 32 7t14 19q0 11 -13 16.5t-34 5.5h-49l12 89h80l-4 -31q25 -2 42.5 -12.5t26.5 -25.5t9 -33q0 -43 -34.5 -73t-93.5 -30z" />
    <glyph glyph-name="scircumflex" unicode="&#x15d;" 
d="M259 -11q-42 0 -81 7.5t-72 24t-61 42.5l50 92l4 8l8 -5q3 -7 6 -15.5t15 -19.5q25 -21 57 -33t76 -12q28 0 47.5 6.5t30 18t10.5 26.5q0 12 -6 21t-19 16t-34 14.5t-50 16.5q-51 13 -88.5 32.5t-57.5 47.5t-20 65q0 39 22.5 69t63.5 47.5t97 17.5q29 0 55 -4.5t49.5 -13
t44 -22t38.5 -31.5l-55 -77l-7 -8l-7 6q-1 8 -4.5 15.5t-15.5 18.5q-20 15 -45.5 22t-50.5 7q-34 0 -58.5 -11t-24.5 -34q0 -13 11 -23.5t36.5 -20t67.5 -20.5q56 -15 91.5 -34.5t52 -46.5t16.5 -63q0 -39 -22 -73t-64.5 -54t-105.5 -20v0zM136 501l-53 48l145 139h38
l145 -139l-53 -48l-112 103z" />
    <glyph glyph-name="uni0219" unicode="&#x219;" 
d="M259 -11q-42 0 -81 7.5t-72 24t-61 42.5l50 92l4 8l8 -5q3 -7 6 -15.5t15 -19.5q25 -21 57 -33t76 -12q28 0 47.5 6.5t30 18t10.5 26.5q0 12 -6 21t-19 16t-34 14.5t-50 16.5q-51 13 -88.5 32.5t-57.5 47.5t-20 65q0 39 22.5 69t63.5 47.5t97 17.5q29 0 55 -4.5t49.5 -13
t44 -22t38.5 -31.5l-55 -77l-7 -8l-7 6q-1 8 -4.5 15.5t-15.5 18.5q-20 15 -45.5 22t-50.5 7q-34 0 -58.5 -11t-24.5 -34q0 -13 11 -23.5t36.5 -20t67.5 -20.5q56 -15 91.5 -34.5t52 -46.5t16.5 -63q0 -39 -22 -73t-64.5 -54t-105.5 -20v0zM220 -295l-55 46q25 23 38 46
t13 38q0 13 -10 24.5t-20.5 25.5t-10.5 35q0 30 21 46.5t48 16.5q35 0 55.5 -25.5t20.5 -65.5q0 -28 -10.5 -58t-33 -62t-56.5 -67z" />
    <glyph glyph-name="uni1E61" unicode="&#x1e61;" 
d="M259 -11q-42 0 -81 7.5t-72 24t-61 42.5l50 92l4 8l8 -5q3 -7 6 -15.5t15 -19.5q25 -21 57 -33t76 -12q28 0 47.5 6.5t30 18t10.5 26.5q0 12 -6 21t-19 16t-34 14.5t-50 16.5q-51 13 -88.5 32.5t-57.5 47.5t-20 65q0 39 22.5 69t63.5 47.5t97 17.5q29 0 55 -4.5t49.5 -13
t44 -22t38.5 -31.5l-55 -77l-7 -8l-7 6q-1 8 -4.5 15.5t-15.5 18.5q-20 15 -45.5 22t-50.5 7q-34 0 -58.5 -11t-24.5 -34q0 -13 11 -23.5t36.5 -20t67.5 -20.5q56 -15 91.5 -34.5t52 -46.5t16.5 -63q0 -39 -22 -73t-64.5 -54t-105.5 -20v0zM254 542q-29 0 -50 20t-21 48
q0 30 20 49t51 19q28 0 49.5 -20t21.5 -48t-21.5 -48t-49.5 -20z" />
    <glyph glyph-name="uni1E63" unicode="&#x1e63;" 
d="M259 -11q-42 0 -81 7.5t-72 24t-61 42.5l50 92l4 8l8 -5q3 -7 6 -15.5t15 -19.5q25 -21 57 -33t76 -12q28 0 47.5 6.5t30 18t10.5 26.5q0 12 -6 21t-19 16t-34 14.5t-50 16.5q-51 13 -88.5 32.5t-57.5 47.5t-20 65q0 39 22.5 69t63.5 47.5t97 17.5q29 0 55 -4.5t49.5 -13
t44 -22t38.5 -31.5l-55 -77l-7 -8l-7 6q-1 8 -4.5 15.5t-15.5 18.5q-20 15 -45.5 22t-50.5 7q-34 0 -58.5 -11t-24.5 -34q0 -13 11 -23.5t36.5 -20t67.5 -20.5q56 -15 91.5 -34.5t52 -46.5t16.5 -63q0 -39 -22 -73t-64.5 -54t-105.5 -20v0zM242 -170q-29 0 -50 20t-21 48
q0 30 20 49t51 19q28 0 49.5 -20t21.5 -48t-21.5 -48t-49.5 -20z" />
    <glyph glyph-name="uni1E69" unicode="&#x1e69;" 
d="M259 -11q-42 0 -81 7.5t-72 24t-61 42.5l50 92l4 8l8 -5q3 -7 6 -15.5t15 -19.5q25 -21 57 -33t76 -12q28 0 47.5 6.5t30 18t10.5 26.5q0 12 -6 21t-19 16t-34 14.5t-50 16.5q-51 13 -88.5 32.5t-57.5 47.5t-20 65q0 39 22.5 69t63.5 47.5t97 17.5q29 0 55 -4.5t49.5 -13
t44 -22t38.5 -31.5l-55 -77l-7 -8l-7 6q-1 8 -4.5 15.5t-15.5 18.5q-20 15 -45.5 22t-50.5 7q-34 0 -58.5 -11t-24.5 -34q0 -13 11 -23.5t36.5 -20t67.5 -20.5q56 -15 91.5 -34.5t52 -46.5t16.5 -63q0 -39 -22 -73t-64.5 -54t-105.5 -20v0zM242 -170q-29 0 -50 20t-21 48
q0 30 20 49t51 19q28 0 49.5 -20t21.5 -48t-21.5 -48t-49.5 -20zM254 542q-29 0 -50 20t-21 48q0 30 20 49t51 19q28 0 49.5 -20t21.5 -48t-21.5 -48t-49.5 -20z" />
    <glyph glyph-name="germandbls" unicode="&#xdf;" 
d="M286 -13q-32 0 -55 8t-48 23l43 85q11 -10 24.5 -16t29.5 -6q18 0 31.5 9.5t23.5 26t15 36.5t5 42q0 23 -6.5 44t-21 36t-37 23.5t-52.5 8.5h-42v88h48q13 0 25 4t22 12.5t17 19.5t11 25.5t4 31.5q0 21 -6 38t-17 30t-26.5 20t-35.5 7q-27 0 -47 -17.5t-31 -50t-11 -76.5
v-439h-108v431q0 83 25 136t68.5 79.5t99.5 26.5q58 0 101 -24.5t66.5 -64.5t23.5 -87q0 -29 -8 -54.5t-24 -46t-42 -35.5q26 -9 47 -24.5t35.5 -38.5t22.5 -51.5t8 -61.5q0 -57 -22 -101.5t-62 -70.5t-94 -26z" />
    <glyph glyph-name="t" unicode="t" 
d="M299 -10q-40 0 -69.5 13t-49 42t-28 77t-5.5 119l13 334l117 15l9 1l1 -9l-8 -14t-5 -24l-11 -138l5 -7l-8 -156q-3 -65 4.5 -100.5t23 -48.5t37.5 -13q32 0 57.5 13t47.5 30l24 -82q-34 -25 -72.5 -38.5t-82.5 -13.5v0zM59 465h358l-1 -89h-359z" />
    <glyph glyph-name="tbar" unicode="&#x167;" 
d="M53 206v89h358v-89h-358zM299 -10q-40 0 -69.5 13t-49 42t-28 77t-5.5 119l13 334l117 15l9 1l1 -9l-8 -14t-5 -24l-11 -138l5 -7l-8 -156q-3 -65 4.5 -100.5t23 -48.5t37.5 -13q32 0 57.5 13t47.5 30l24 -82q-34 -25 -72.5 -38.5t-82.5 -13.5v0zM59 465h358l-1 -89h-359
z" />
    <glyph glyph-name="tcaron" unicode="&#x165;" 
d="M299 -10q-40 0 -69.5 13t-49 42t-28 77t-5.5 119l13 334l117 15l9 1l1 -9l-8 -14t-5 -24l-11 -138l5 -7l-8 -156q-3 -65 4.5 -100.5t23 -48.5t37.5 -13q32 0 57.5 13t47.5 30l24 -82q-34 -25 -72.5 -38.5t-82.5 -13.5v0zM59 465h358l-1 -89h-359zM400 473l-58 50
q17 16 29 29t18.5 24t6.5 21q0 7 -5.5 13t-12.5 13t-12.5 15.5t-5.5 19.5q0 26 19 43.5t48 17.5t51 -22t22 -57q0 -22 -11 -48t-33 -55.5t-56 -63.5z" />
    <glyph glyph-name="uni0163" unicode="&#x163;" 
d="M299 -10q-40 0 -69.5 13t-49 42t-28 77t-5.5 119l13 334l117 15l9 1l1 -9l-8 -14t-5 -24l-11 -138l5 -7l-8 -156q-3 -65 4.5 -100.5t23 -48.5t37.5 -13q32 0 57.5 13t47.5 30l24 -82q-34 -25 -72.5 -38.5t-82.5 -13.5v0zM59 465h358l-1 -89h-359zM273 -205q-31 0 -61.5 8
t-62.5 33l37 66q26 -22 50 -30.5t49 -8.5q18 0 32 7t14 19q0 11 -13 16.5t-34 5.5h-49l12 89h80l-4 -31q25 -2 42.5 -12.5t26.5 -25.5t9 -33q0 -43 -34.5 -73t-93.5 -30z" />
    <glyph glyph-name="uni021B" unicode="&#x21b;" 
d="M299 -10q-40 0 -69.5 13t-49 42t-28 77t-5.5 119l13 334l117 15l9 1l1 -9l-8 -14t-5 -24l-11 -138l5 -7l-8 -156q-3 -65 4.5 -100.5t23 -48.5t37.5 -13q32 0 57.5 13t47.5 30l24 -82q-34 -25 -72.5 -38.5t-82.5 -13.5v0zM59 465h358l-1 -89h-359zM256 -295l-55 46
q25 23 38 46t13 38q0 13 -10 24.5t-20.5 25.5t-10.5 35q0 30 21 46.5t48 16.5q35 0 55.5 -25.5t20.5 -65.5q0 -28 -10.5 -58t-33 -62t-56.5 -67z" />
    <glyph glyph-name="uni1E97" unicode="&#x1e97;" 
d="M299 -10q-40 0 -69.5 13t-49 42t-28 77t-5.5 119l13 334l117 15l9 1l1 -9l-8 -14t-5 -24l-11 -138l5 -7l-8 -156q-3 -65 4.5 -100.5t23 -48.5t37.5 -13q32 0 57.5 13t47.5 30l24 -82q-34 -25 -72.5 -38.5t-82.5 -13.5v0zM59 465h358l-1 -89h-359zM146 670q-27 0 -47 19
t-20 45t20 45.5t47 19.5q30 0 49 -20t19 -45q0 -26 -20 -45t-48 -19zM330 670q-27 0 -46.5 18.5t-19.5 45.5t19.5 46t46.5 19q31 0 49 -20.5t18 -44.5q0 -26 -19.5 -45t-47.5 -19z" />
    <glyph glyph-name="uni1E6D" unicode="&#x1e6d;" 
d="M299 -10q-40 0 -69.5 13t-49 42t-28 77t-5.5 119l13 334l117 15l9 1l1 -9l-8 -14t-5 -24l-11 -138l5 -7l-8 -156q-3 -65 4.5 -100.5t23 -48.5t37.5 -13q32 0 57.5 13t47.5 30l24 -82q-34 -25 -72.5 -38.5t-82.5 -13.5v0zM59 465h358l-1 -89h-359zM272 -170q-29 0 -50 20
t-21 48q0 30 20 49t51 19q28 0 49.5 -20t21.5 -48t-21.5 -48t-49.5 -20z" />
    <glyph glyph-name="uni1E6F" unicode="&#x1e6f;" 
d="M299 -10q-40 0 -69.5 13t-49 42t-28 77t-5.5 119l13 334l117 15l9 1l1 -9l-8 -14t-5 -24l-11 -138l5 -7l-8 -156q-3 -65 4.5 -100.5t23 -48.5t37.5 -13q32 0 57.5 13t47.5 30l24 -82q-34 -25 -72.5 -38.5t-82.5 -13.5v0zM59 465h358l-1 -89h-359zM134 -156v76h280v-76
h-280z" />
    <glyph glyph-name="u" unicode="u" 
d="M212 -12q-28 0 -53 7.5t-45 23t-34.5 39.5t-22.5 57.5t-8 76.5v273h114v-273q0 -31 5 -52.5t15 -35t23.5 -19.5t28.5 -6q21 0 38.5 7.5t30 22.5t19.5 37.5t7 53.5v265h113v-391q0 -22 1.5 -39.5t8.5 -34.5h-103q-5 10 -7 20t-2.5 20.5t-0.5 19.5q-11 -17 -25 -30.5
t-30.5 -22.5t-35 -14t-37.5 -5z" />
    <glyph glyph-name="uacute" unicode="&#xfa;" 
d="M212 -12q-28 0 -53 7.5t-45 23t-34.5 39.5t-22.5 57.5t-8 76.5v273h114v-273q0 -31 5 -52.5t15 -35t23.5 -19.5t28.5 -6q21 0 38.5 7.5t30 22.5t19.5 37.5t7 53.5v265h113v-391q0 -22 1.5 -39.5t8.5 -34.5h-103q-5 10 -7 20t-2.5 20.5t-0.5 19.5q-11 -17 -25 -30.5
t-30.5 -22.5t-35 -14t-37.5 -5zM234 504l-52 33l83 166l79 -57z" />
    <glyph glyph-name="ubreve" unicode="&#x16d;" 
d="M212 -12q-28 0 -53 7.5t-45 23t-34.5 39.5t-22.5 57.5t-8 76.5v273h114v-273q0 -31 5 -52.5t15 -35t23.5 -19.5t28.5 -6q21 0 38.5 7.5t30 22.5t19.5 37.5t7 53.5v265h113v-391q0 -22 1.5 -39.5t8.5 -34.5h-103q-5 10 -7 20t-2.5 20.5t-0.5 19.5q-11 -17 -25 -30.5
t-30.5 -22.5t-35 -14t-37.5 -5zM331 668l70 -32q-24 -51 -62.5 -78.5t-88.5 -27.5t-88.5 27.5t-62.5 78.5l70 32q16 -36 35 -54t46 -18q18 0 33 7.5t27 24t21 40.5z" />
    <glyph glyph-name="ucircumflex" unicode="&#xfb;" 
d="M212 -12q-28 0 -53 7.5t-45 23t-34.5 39.5t-22.5 57.5t-8 76.5v273h114v-273q0 -31 5 -52.5t15 -35t23.5 -19.5t28.5 -6q21 0 38.5 7.5t30 22.5t19.5 37.5t7 53.5v265h113v-391q0 -22 1.5 -39.5t8.5 -34.5h-103q-5 10 -7 20t-2.5 20.5t-0.5 19.5q-11 -17 -25 -30.5
t-30.5 -22.5t-35 -14t-37.5 -5zM138 499l-53 48l145 139h38l145 -139l-53 -48l-112 103z" />
    <glyph glyph-name="uni0215" unicode="&#x215;" 
d="M212 -12q-28 0 -53 7.5t-45 23t-34.5 39.5t-22.5 57.5t-8 76.5v273h114v-273q0 -31 5 -52.5t15 -35t23.5 -19.5t28.5 -6q21 0 38.5 7.5t30 22.5t19.5 37.5t7 53.5v265h113v-391q0 -22 1.5 -39.5t8.5 -34.5h-103q-5 10 -7 20t-2.5 20.5t-0.5 19.5q-11 -17 -25 -30.5
t-30.5 -22.5t-35 -14t-37.5 -5zM185 504l-110 142l79 57l83 -166zM345 504l-110 142l79 57l83 -166z" />
    <glyph glyph-name="udieresis" unicode="&#xfc;" 
d="M212 -12q-28 0 -53 7.5t-45 23t-34.5 39.5t-22.5 57.5t-8 76.5v273h114v-273q0 -31 5 -52.5t15 -35t23.5 -19.5t28.5 -6q21 0 38.5 7.5t30 22.5t19.5 37.5t7 53.5v265h113v-391q0 -22 1.5 -39.5t8.5 -34.5h-103q-5 10 -7 20t-2.5 20.5t-0.5 19.5q-11 -17 -25 -30.5
t-30.5 -22.5t-35 -14t-37.5 -5zM158 548q-27 0 -47 19t-20 45t20 45.5t47 19.5q30 0 49 -20t19 -45q0 -26 -20 -45t-48 -19zM342 548q-27 0 -46.5 18.5t-19.5 45.5t19.5 46t46.5 19q31 0 49 -20.5t18 -44.5q0 -26 -19.5 -45t-47.5 -19z" />
    <glyph glyph-name="uni1EE5" unicode="&#x1ee5;" 
d="M212 -12q-28 0 -53 7.5t-45 23t-34.5 39.5t-22.5 57.5t-8 76.5v273h114v-273q0 -31 5 -52.5t15 -35t23.5 -19.5t28.5 -6q21 0 38.5 7.5t30 22.5t19.5 37.5t7 53.5v265h113v-391q0 -22 1.5 -39.5t8.5 -34.5h-103q-5 10 -7 20t-2.5 20.5t-0.5 19.5q-11 -17 -25 -30.5
t-30.5 -22.5t-35 -14t-37.5 -5zM222 -170q-29 0 -50 20t-21 48q0 30 20 49t51 19q28 0 49.5 -20t21.5 -48t-21.5 -48t-49.5 -20z" />
    <glyph glyph-name="ugrave" unicode="&#xf9;" 
d="M212 -12q-28 0 -53 7.5t-45 23t-34.5 39.5t-22.5 57.5t-8 76.5v273h114v-273q0 -31 5 -52.5t15 -35t23.5 -19.5t28.5 -6q21 0 38.5 7.5t30 22.5t19.5 37.5t7 53.5v265h113v-391q0 -22 1.5 -39.5t8.5 -34.5h-103q-5 10 -7 20t-2.5 20.5t-0.5 19.5q-11 -17 -25 -30.5
t-30.5 -22.5t-35 -14t-37.5 -5zM243 504l-110 142l79 57l83 -166z" />
    <glyph glyph-name="uni1EE7" unicode="&#x1ee7;" 
d="M212 -12q-28 0 -53 7.5t-45 23t-34.5 39.5t-22.5 57.5t-8 76.5v273h114v-273q0 -31 5 -52.5t15 -35t23.5 -19.5t28.5 -6q21 0 38.5 7.5t30 22.5t19.5 37.5t7 53.5v265h113v-391q0 -22 1.5 -39.5t8.5 -34.5h-103q-5 10 -7 20t-2.5 20.5t-0.5 19.5q-11 -17 -25 -30.5
t-30.5 -22.5t-35 -14t-37.5 -5zM362 641q0 -21 -10 -36t-23.5 -26.5t-24 -23.5t-10.5 -28v-8h-70v28q0 16 9.5 28t22 22t22 20t9.5 19q0 14 -9 21.5t-23 7.5q-19 0 -33 -7.5t-23 -29.5l-41 54q19 24 47 35t55 11q31 -1 54 -12t35.5 -30t12.5 -45z" />
    <glyph glyph-name="uhorn" unicode="&#x1b0;" 
d="M174 -12q-26 0 -49 7.5t-41.5 23t-32 39.5t-20.5 57.5t-7 76.5l1 273h103v-273q0 -31 5.5 -52.5t14.5 -35t21 -19.5t26 -6q20 0 36 7.5t27.5 22.5t18 37.5t6.5 53.5v265h104v-391q0 -22 1 -39.5t8 -34.5h-95q-4 10 -6 20t-2.5 20.5t-0.5 19.5q-10 -17 -23 -30.5
t-28.5 -22.5t-32.5 -14t-34 -5zM479 559q0 -63 -12.5 -99t-36.5 -51t-60 -15v69q12 0 17.5 23t5.5 73h86z" />
    <glyph glyph-name="uni1EE9" unicode="&#x1ee9;" 
d="M174 -12q-26 0 -49 7.5t-41.5 23t-32 39.5t-20.5 57.5t-7 76.5l1 273h103v-273q0 -31 5.5 -52.5t14.5 -35t21 -19.5t26 -6q20 0 36 7.5t27.5 22.5t18 37.5t6.5 53.5v265h104v-391q0 -22 1 -39.5t8 -34.5h-95q-4 10 -6 20t-2.5 20.5t-0.5 19.5q-10 -17 -23 -30.5
t-28.5 -22.5t-32.5 -14t-34 -5zM479 559q0 -63 -12.5 -99t-36.5 -51t-60 -15v69q12 0 17.5 23t5.5 73h86zM220 504l-52 33l83 166l79 -57z" />
    <glyph glyph-name="uni1EF1" unicode="&#x1ef1;" 
d="M174 -12q-26 0 -49 7.5t-41.5 23t-32 39.5t-20.5 57.5t-7 76.5l1 273h103v-273q0 -31 5.5 -52.5t14.5 -35t21 -19.5t26 -6q20 0 36 7.5t27.5 22.5t18 37.5t6.5 53.5v265h104v-391q0 -22 1 -39.5t8 -34.5h-95q-4 10 -6 20t-2.5 20.5t-0.5 19.5q-10 -17 -23 -30.5
t-28.5 -22.5t-32.5 -14t-34 -5zM479 559q0 -63 -12.5 -99t-36.5 -51t-60 -15v69q12 0 17.5 23t5.5 73h86zM200 -170q-29 0 -50 20t-21 48q0 30 20 49t51 19q28 0 49.5 -20t21.5 -48t-21.5 -48t-49.5 -20z" />
    <glyph glyph-name="uni1EEB" unicode="&#x1eeb;" 
d="M174 -12q-26 0 -49 7.5t-41.5 23t-32 39.5t-20.5 57.5t-7 76.5l1 273h103v-273q0 -31 5.5 -52.5t14.5 -35t21 -19.5t26 -6q20 0 36 7.5t27.5 22.5t18 37.5t6.5 53.5v265h104v-391q0 -22 1 -39.5t8 -34.5h-95q-4 10 -6 20t-2.5 20.5t-0.5 19.5q-10 -17 -23 -30.5
t-28.5 -22.5t-32.5 -14t-34 -5zM479 559q0 -63 -12.5 -99t-36.5 -51t-60 -15v69q12 0 17.5 23t5.5 73h86zM229 504l-110 142l79 57l83 -166z" />
    <glyph glyph-name="uni1EED" unicode="&#x1eed;" 
d="M174 -12q-26 0 -49 7.5t-41.5 23t-32 39.5t-20.5 57.5t-7 76.5l1 273h103v-273q0 -31 5.5 -52.5t14.5 -35t21 -19.5t26 -6q20 0 36 7.5t27.5 22.5t18 37.5t6.5 53.5v265h104v-391q0 -22 1 -39.5t8 -34.5h-95q-4 10 -6 20t-2.5 20.5t-0.5 19.5q-10 -17 -23 -30.5
t-28.5 -22.5t-32.5 -14t-34 -5zM479 559q0 -63 -12.5 -99t-36.5 -51t-60 -15v69q12 0 17.5 23t5.5 73h86zM348 641q0 -21 -10 -36t-23.5 -26.5t-24 -23.5t-10.5 -28v-8h-70v28q0 16 9.5 28t22 22t22 20t9.5 19q0 14 -9 21.5t-23 7.5q-19 0 -33 -7.5t-23 -29.5l-41 54
q19 24 47 35t55 11q31 -1 54 -12t35.5 -30t12.5 -45z" />
    <glyph glyph-name="uni1EEF" unicode="&#x1eef;" 
d="M174 -12q-26 0 -49 7.5t-41.5 23t-32 39.5t-20.5 57.5t-7 76.5l1 273h103v-273q0 -31 5.5 -52.5t14.5 -35t21 -19.5t26 -6q20 0 36 7.5t27.5 22.5t18 37.5t6.5 53.5v265h104v-391q0 -22 1 -39.5t8 -34.5h-95q-4 10 -6 20t-2.5 20.5t-0.5 19.5q-10 -17 -23 -30.5
t-28.5 -22.5t-32.5 -14t-34 -5zM479 559q0 -63 -12.5 -99t-36.5 -51t-60 -15v69q12 0 17.5 23t5.5 73h86zM303 673l57 -26q-18 -41 -40.5 -59t-48.5 -18q-21 0 -36.5 8t-28 18.5t-23 18.5t-22.5 8q-13 0 -23.5 -10.5t-17.5 -28.5l-57 26q14 36 39.5 57t50.5 21q20 0 36.5 -8
t30.5 -19t25 -19t21 -8q11 0 19.5 8.5t17.5 30.5z" />
    <glyph glyph-name="uhungarumlaut" unicode="&#x171;" 
d="M212 -12q-28 0 -53 7.5t-45 23t-34.5 39.5t-22.5 57.5t-8 76.5v273h114v-273q0 -31 5 -52.5t15 -35t23.5 -19.5t28.5 -6q21 0 38.5 7.5t30 22.5t19.5 37.5t7 53.5v265h113v-391q0 -22 1.5 -39.5t8.5 -34.5h-103q-5 10 -7 20t-2.5 20.5t-0.5 19.5q-11 -17 -25 -30.5
t-30.5 -22.5t-35 -14t-37.5 -5zM331 517l-59 36l83 161l81 -56zM176 517l-59 36l83 161l81 -56z" />
    <glyph glyph-name="uni0217" unicode="&#x217;" 
d="M212 -12q-28 0 -53 7.5t-45 23t-34.5 39.5t-22.5 57.5t-8 76.5v273h114v-273q0 -31 5 -52.5t15 -35t23.5 -19.5t28.5 -6q21 0 38.5 7.5t30 22.5t19.5 37.5t7 53.5v265h113v-391q0 -22 1.5 -39.5t8.5 -34.5h-103q-5 10 -7 20t-2.5 20.5t-0.5 19.5q-11 -17 -25 -30.5
t-30.5 -22.5t-35 -14t-37.5 -5zM171 520l-70 32q24 51 62.5 78.5t88.5 27.5t88.5 -27.5t62.5 -78.5l-70 -32q-16 36 -35 54t-46 18q-18 0 -33 -7.5t-27 -23.5t-21 -41z" />
    <glyph glyph-name="umacron" unicode="&#x16b;" 
d="M212 -12q-28 0 -53 7.5t-45 23t-34.5 39.5t-22.5 57.5t-8 76.5v273h114v-273q0 -31 5 -52.5t15 -35t23.5 -19.5t28.5 -6q21 0 38.5 7.5t30 22.5t19.5 37.5t7 53.5v265h113v-391q0 -22 1.5 -39.5t8.5 -34.5h-103q-5 10 -7 20t-2.5 20.5t-0.5 19.5q-11 -17 -25 -30.5
t-30.5 -22.5t-35 -14t-37.5 -5zM109 564v76h280v-76h-280z" />
    <glyph glyph-name="uni1E7B" unicode="&#x1e7b;" 
d="M212 -12q-28 0 -53 7.5t-45 23t-34.5 39.5t-22.5 57.5t-8 76.5v273h114v-273q0 -31 5 -52.5t15 -35t23.5 -19.5t28.5 -6q21 0 38.5 7.5t30 22.5t19.5 37.5t7 53.5v265h113v-391q0 -22 1.5 -39.5t8.5 -34.5h-103q-5 10 -7 20t-2.5 20.5t-0.5 19.5q-11 -17 -25 -30.5
t-30.5 -22.5t-35 -14t-37.5 -5zM109 564v76h280v-76h-280zM158 697q-27 0 -47 19t-20 45t20 45.5t47 19.5q30 0 49 -20t19 -45q0 -26 -20 -45t-48 -19zM342 697q-27 0 -46.5 18.5t-19.5 45.5t19.5 46t46.5 19q31 0 49 -20.5t18 -44.5q0 -26 -19.5 -45t-47.5 -19z" />
    <glyph glyph-name="uogonek" unicode="&#x173;" 
d="M212 -12q-28 0 -53 7.5t-45 23t-34.5 39.5t-22.5 57.5t-8 76.5v273h114v-273q0 -31 5 -52.5t15 -35t23.5 -19.5t28.5 -6q21 0 38.5 7.5t30 22.5t19.5 37.5t7 53.5v265h113v-391q0 -22 1.5 -39.5t8.5 -34.5h-103q-5 10 -7 20t-2.5 20.5t-0.5 19.5q-11 -17 -25 -30.5
t-30.5 -22.5t-35 -14t-37.5 -5zM437 -150l-45 -88q-45 12 -74 29t-43.5 38.5t-14.5 44.5q0 25 16 51.5t46.5 52.5t75.5 49l40 -27q-21 -18 -36.5 -35.5t-23.5 -32.5t-8 -28q0 -19 17 -32.5t50 -21.5z" />
    <glyph glyph-name="uring" unicode="&#x16f;" 
d="M212 -12q-28 0 -53 7.5t-45 23t-34.5 39.5t-22.5 57.5t-8 76.5v273h114v-273q0 -31 5 -52.5t15 -35t23.5 -19.5t28.5 -6q21 0 38.5 7.5t30 22.5t19.5 37.5t7 53.5v265h113v-391q0 -22 1.5 -39.5t8.5 -34.5h-103q-5 10 -7 20t-2.5 20.5t-0.5 19.5q-11 -17 -25 -30.5
t-30.5 -22.5t-35 -14t-37.5 -5zM246 512q-28 0 -51.5 13.5t-37.5 36.5t-14 50t14 49.5t37.5 36t51.5 13.5t52 -13.5t38.5 -35.5t14.5 -50q0 -27 -14.5 -50t-38 -36.5t-52.5 -13.5zM247 576q13 0 22.5 10.5t9.5 26.5t-9.5 27t-22.5 11t-22.5 -11t-9.5 -27t9.5 -26.5
t22.5 -10.5z" />
    <glyph glyph-name="utilde" unicode="&#x169;" 
d="M212 -12q-28 0 -53 7.5t-45 23t-34.5 39.5t-22.5 57.5t-8 76.5v273h114v-273q0 -31 5 -52.5t15 -35t23.5 -19.5t28.5 -6q21 0 38.5 7.5t30 22.5t19.5 37.5t7 53.5v265h113v-391q0 -22 1.5 -39.5t8.5 -34.5h-103q-5 10 -7 20t-2.5 20.5t-0.5 19.5q-11 -17 -25 -30.5
t-30.5 -22.5t-35 -14t-37.5 -5zM360 668l60 -31q-20 -43 -44 -61.5t-54 -18.5q-29 0 -48 9.5t-33 22t-25.5 21.5t-25.5 9q-17 0 -29.5 -12.5t-23.5 -36.5l-62 29q17 43 44 65t67 22q26 0 44 -9t31.5 -21t26 -21t27.5 -9q17 0 26 10.5t19 31.5z" />
    <glyph glyph-name="uni1E79" unicode="&#x1e79;" 
d="M212 -12q-28 0 -53 7.5t-45 23t-34.5 39.5t-22.5 57.5t-8 76.5v273h114v-273q0 -31 5 -52.5t15 -35t23.5 -19.5t28.5 -6q21 0 38.5 7.5t30 22.5t19.5 37.5t7 53.5v265h113v-391q0 -22 1.5 -39.5t8.5 -34.5h-103q-5 10 -7 20t-2.5 20.5t-0.5 19.5q-11 -17 -25 -30.5
t-30.5 -22.5t-35 -14t-37.5 -5zM360 668l60 -31q-20 -43 -44 -61.5t-54 -18.5q-29 0 -48 9.5t-33 22t-25.5 21.5t-25.5 9q-17 0 -29.5 -12.5t-23.5 -36.5l-62 29q17 43 44 65t67 22q26 0 44 -9t31.5 -21t26 -21t27.5 -9q17 0 26 10.5t19 31.5zM234 685l-52 33l83 166l79 -57
z" />
    <glyph glyph-name="v" unicode="v" 
d="M204 0l-175 465h118l119 -333h-16l63 152q19 48 30.5 94t14.5 87h106q-5 -44 -21.5 -93t-37.5 -101l-112 -271h-89z" />
    <glyph glyph-name="w" unicode="w" 
d="M95 0l-86 465h98l53 -318l66 266h59l78 -264q9 66 14.5 112t8.5 78t4 55.5t1 43.5v27h96q-6 -74 -17 -154t-24.5 -159t-27.5 -152h-99l-65 252l-60 -252h-99z" />
    <glyph glyph-name="wacute" unicode="&#x1e83;" 
d="M95 0l-86 465h98l53 -318l66 266h59l78 -264q9 66 14.5 112t8.5 78t4 55.5t1 43.5v27h96q-6 -74 -17 -154t-24.5 -159t-27.5 -152h-99l-65 252l-60 -252h-99zM234 504l-52 33l83 166l79 -57z" />
    <glyph glyph-name="wcircumflex" unicode="&#x175;" 
d="M95 0l-86 465h98l53 -318l66 266h59l78 -264q9 66 14.5 112t8.5 78t4 55.5t1 43.5v27h96q-6 -74 -17 -154t-24.5 -159t-27.5 -152h-99l-65 252l-60 -252h-99zM138 499l-53 48l145 139h38l145 -139l-53 -48l-112 103z" />
    <glyph glyph-name="wdieresis" unicode="&#x1e85;" 
d="M95 0l-86 465h98l53 -318l66 266h59l78 -264q9 66 14.5 112t8.5 78t4 55.5t1 43.5v27h96q-6 -74 -17 -154t-24.5 -159t-27.5 -152h-99l-65 252l-60 -252h-99zM158 548q-27 0 -47 19t-20 45t20 45.5t47 19.5q30 0 49 -20t19 -45q0 -26 -20 -45t-48 -19zM342 548
q-27 0 -46.5 18.5t-19.5 45.5t19.5 46t46.5 19q31 0 49 -20.5t18 -44.5q0 -26 -19.5 -45t-47.5 -19z" />
    <glyph glyph-name="wgrave" unicode="&#x1e81;" 
d="M95 0l-86 465h98l53 -318l66 266h59l78 -264q9 66 14.5 112t8.5 78t4 55.5t1 43.5v27h96q-6 -74 -17 -154t-24.5 -159t-27.5 -152h-99l-65 252l-60 -252h-99zM243 504l-110 142l79 57l83 -166z" />
    <glyph glyph-name="x" unicode="x" 
d="M28 0l161 233l-159 232h119l100 -144l93 144h114l-147 -228l167 -237h-122l-105 148l-100 -148h-121z" />
    <glyph glyph-name="y" unicode="y" 
d="M126 -176q-33 0 -59.5 11.5t-51.5 31.5l39 78l4 9l9 -4q3 -8 7.5 -15t17.5 -16q7 -4 15.5 -6t18.5 -2q20 0 34.5 11t27 34t24.5 59l101 285q15 43 25.5 83t12.5 82h105q-4 -45 -21 -94.5t-34 -95.5l-115 -316q-28 -74 -67.5 -104.5t-92.5 -30.5v0zM31 465h113l137 -355
l-59 -121z" />
    <glyph glyph-name="yacute" unicode="&#xfd;" 
d="M126 -176q-33 0 -59.5 11.5t-51.5 31.5l39 78l4 9l9 -4q3 -8 7.5 -15t17.5 -16q7 -4 15.5 -6t18.5 -2q20 0 34.5 11t27 34t24.5 59l101 285q15 43 25.5 83t12.5 82h105q-4 -45 -21 -94.5t-34 -95.5l-115 -316q-28 -74 -67.5 -104.5t-92.5 -30.5v0zM31 465h113l137 -355
l-59 -121zM241 504l-52 33l83 166l79 -57z" />
    <glyph glyph-name="ycircumflex" unicode="&#x177;" 
d="M126 -176q-33 0 -59.5 11.5t-51.5 31.5l39 78l4 9l9 -4q3 -8 7.5 -15t17.5 -16q7 -4 15.5 -6t18.5 -2q20 0 34.5 11t27 34t24.5 59l101 285q15 43 25.5 83t12.5 82h105q-4 -45 -21 -94.5t-34 -95.5l-115 -316q-28 -74 -67.5 -104.5t-92.5 -30.5v0zM31 465h113l137 -355
l-59 -121zM145 499l-53 48l145 139h38l145 -139l-53 -48l-112 103z" />
    <glyph glyph-name="ydieresis" unicode="&#xff;" 
d="M126 -176q-33 0 -59.5 11.5t-51.5 31.5l39 78l4 9l9 -4q3 -8 7.5 -15t17.5 -16q7 -4 15.5 -6t18.5 -2q20 0 34.5 11t27 34t24.5 59l101 285q15 43 25.5 83t12.5 82h105q-4 -45 -21 -94.5t-34 -95.5l-115 -316q-28 -74 -67.5 -104.5t-92.5 -30.5v0zM31 465h113l137 -355
l-59 -121zM165 548q-27 0 -47 19t-20 45t20 45.5t47 19.5q30 0 49 -20t19 -45q0 -26 -20 -45t-48 -19zM349 548q-27 0 -46.5 18.5t-19.5 45.5t19.5 46t46.5 19q31 0 49 -20.5t18 -44.5q0 -26 -19.5 -45t-47.5 -19z" />
    <glyph glyph-name="uni1E8F" unicode="&#x1e8f;" 
d="M126 -176q-33 0 -59.5 11.5t-51.5 31.5l39 78l4 9l9 -4q3 -8 7.5 -15t17.5 -16q7 -4 15.5 -6t18.5 -2q20 0 34.5 11t27 34t24.5 59l101 285q15 43 25.5 83t12.5 82h105q-4 -45 -21 -94.5t-34 -95.5l-115 -316q-28 -74 -67.5 -104.5t-92.5 -30.5v0zM31 465h113l137 -355
l-59 -121zM257 542q-29 0 -50 20t-21 48q0 30 20 49t51 19q28 0 49.5 -20t21.5 -48t-21.5 -48t-49.5 -20z" />
    <glyph glyph-name="uni1EF5" unicode="&#x1ef5;" 
d="M126 -176q-33 0 -59.5 11.5t-51.5 31.5l39 78l4 9l9 -4q3 -8 7.5 -15t17.5 -16q7 -4 15.5 -6t18.5 -2q20 0 34.5 11t27 34t24.5 59l101 285q15 43 25.5 83t12.5 82h105q-4 -45 -21 -94.5t-34 -95.5l-115 -316q-28 -74 -67.5 -104.5t-92.5 -30.5v0zM31 465h113l137 -355
l-59 -121zM384 -170q-29 0 -50 20t-21 48q0 30 20 49t51 19q28 0 49.5 -20t21.5 -48t-21.5 -48t-49.5 -20z" />
    <glyph glyph-name="ygrave" unicode="&#x1ef3;" 
d="M126 -176q-33 0 -59.5 11.5t-51.5 31.5l39 78l4 9l9 -4q3 -8 7.5 -15t17.5 -16q7 -4 15.5 -6t18.5 -2q20 0 34.5 11t27 34t24.5 59l101 285q15 43 25.5 83t12.5 82h105q-4 -45 -21 -94.5t-34 -95.5l-115 -316q-28 -74 -67.5 -104.5t-92.5 -30.5v0zM31 465h113l137 -355
l-59 -121zM250 504l-110 142l79 57l83 -166z" />
    <glyph glyph-name="uni1EF7" unicode="&#x1ef7;" 
d="M126 -176q-33 0 -59.5 11.5t-51.5 31.5l39 78l4 9l9 -4q3 -8 7.5 -15t17.5 -16q7 -4 15.5 -6t18.5 -2q20 0 34.5 11t27 34t24.5 59l101 285q15 43 25.5 83t12.5 82h105q-4 -45 -21 -94.5t-34 -95.5l-115 -316q-28 -74 -67.5 -104.5t-92.5 -30.5v0zM31 465h113l137 -355
l-59 -121zM370 641q0 -21 -10 -36t-23.5 -26.5t-24 -23.5t-10.5 -28v-8h-70v28q0 16 9.5 28t22 22t22 20t9.5 19q0 14 -9 21.5t-23 7.5q-19 0 -33 -7.5t-23 -29.5l-41 54q19 24 47 35t55 11q31 -1 54 -12t35.5 -30t12.5 -45z" />
    <glyph glyph-name="uni0233" unicode="&#x233;" 
d="M126 -176q-33 0 -59.5 11.5t-51.5 31.5l39 78l4 9l9 -4q3 -8 7.5 -15t17.5 -16q7 -4 15.5 -6t18.5 -2q20 0 34.5 11t27 34t24.5 59l101 285q15 43 25.5 83t12.5 82h105q-4 -45 -21 -94.5t-34 -95.5l-115 -316q-28 -74 -67.5 -104.5t-92.5 -30.5v0zM31 465h113l137 -355
l-59 -121zM116 564v76h280v-76h-280z" />
    <glyph glyph-name="uni1EF9" unicode="&#x1ef9;" 
d="M126 -176q-33 0 -59.5 11.5t-51.5 31.5l39 78l4 9l9 -4q3 -8 7.5 -15t17.5 -16q7 -4 15.5 -6t18.5 -2q20 0 34.5 11t27 34t24.5 59l101 285q15 43 25.5 83t12.5 82h105q-4 -45 -21 -94.5t-34 -95.5l-115 -316q-28 -74 -67.5 -104.5t-92.5 -30.5v0zM31 465h113l137 -355
l-59 -121zM367 668l60 -31q-20 -43 -44 -61.5t-54 -18.5q-29 0 -48 9.5t-33 22t-25.5 21.5t-25.5 9q-17 0 -29.5 -12.5t-23.5 -36.5l-62 29q17 43 44 65t67 22q26 0 44 -9t31.5 -21t26 -21t27.5 -9q17 0 26 10.5t19 31.5z" />
    <glyph glyph-name="z" unicode="z" 
d="M40 68l257 304h-237v93h377v-71l-252 -301h229q17 0 24 2t13 8h9v-10v-93h-420v68z" />
    <glyph glyph-name="zacute" unicode="&#x17a;" 
d="M40 68l257 304h-237v93h377v-71l-252 -301h229q17 0 24 2t13 8h9v-10v-93h-420v68zM237 504l-52 33l83 166l79 -57z" />
    <glyph glyph-name="zcaron" unicode="&#x17e;" 
d="M40 68l257 304h-237v93h377v-71l-252 -301h229q17 0 24 2t13 8h9v-10v-93h-420v68zM139 704l110 -103l112 103l53 -49l-145 -139h-38l-145 139z" />
    <glyph glyph-name="zdotaccent" unicode="&#x17c;" 
d="M40 68l257 304h-237v93h377v-71l-252 -301h229q17 0 24 2t13 8h9v-10v-93h-420v68zM254 542q-29 0 -50 20t-21 48q0 30 20 49t51 19q28 0 49.5 -20t21.5 -48t-21.5 -48t-49.5 -20z" />
    <glyph glyph-name="uni1E93" unicode="&#x1e93;" 
d="M40 68l257 304h-237v93h377v-71l-252 -301h229q17 0 24 2t13 8h9v-10v-93h-420v68zM248 -170q-29 0 -50 20t-21 48q0 30 20 49t51 19q28 0 49.5 -20t21.5 -48t-21.5 -48t-49.5 -20z" />
    <glyph glyph-name="u.i" 
d="M174 -12q-26 0 -49 7.5t-41.5 23t-32 39.5t-20.5 57.5t-7 76.5l1 273h103v-273q0 -31 5.5 -52.5t14.5 -35t21 -19.5t26 -6q20 0 36 7.5t27.5 22.5t18 37.5t6.5 53.5v265h104v-391q0 -22 1 -39.5t8 -34.5h-95q-4 10 -6 20t-2.5 20.5t-0.5 19.5q-10 -17 -23 -30.5
t-28.5 -22.5t-32.5 -14t-34 -5z" />
    <glyph glyph-name="ordfeminine" unicode="&#xaa;" 
d="M209 258q-56 0 -87.5 28.5t-31.5 73.5q0 40 22 70t65 47.5t109 17.5q5 0 13 -0.5t16.5 -1t16.5 -0.5l3 -65q-6 0 -16 0.5t-19.5 0t-15.5 -0.5q-40 0 -61.5 -7t-30 -20t-8.5 -28q0 -14 6 -23.5t16 -13.5t23 -4q20 0 34.5 6.5t24 21.5t14 39t4.5 57q0 43 -7.5 66
t-22.5 31.5t-37 8.5q-23 0 -42.5 -7t-40.5 -29l-51 56q30 30 65.5 41.5t72.5 11.5q43 0 78.5 -13.5t56.5 -48t21 -97.5v-209h-95v34q-10 -12 -20 -20t-21.5 -13.5t-24.5 -7.5t-29 -2zM69 221h364v-86h-364v86z" />
    <glyph glyph-name="ordmasculine" unicode="&#xba;" 
d="M249 259q-46 0 -83 22.5t-59 65t-22 99.5q0 56 22 98.5t59.5 66.5t82.5 24q47 0 84.5 -24t59.5 -66.5t22 -98.5q0 -57 -22 -99t-59.5 -65t-84.5 -23zM249 334q22 0 38.5 14t26 39.5t9.5 59.5q0 36 -9.5 61t-26 38.5t-38.5 13.5q-20 0 -36 -13.5t-26 -38.5t-10 -61
q0 -34 9.5 -59.5t25.5 -39.5t37 -14zM69 221h364v-86h-364v86z" />
    <glyph glyph-name="uni207F" unicode="&#x207f;" 
d="M55 0v465h113v-64q17 22 37 39t44.5 26.5t52.5 9.5q41 0 75 -19.5t55 -62.5t21 -113v-281h-113v279q0 39 -8 63t-23.5 35.5t-36.5 11.5q-19 0 -37.5 -7.5t-33.5 -22.5t-24 -35.5t-9 -46.5v-277h-113z" />
    <glyph glyph-name="uni2124" unicode="&#x2124;" 
d="M111 51l-31 23h337q17 0 24 2t13 7h9v-9v-74h-413v67l236 521h71zM402 571l39 -23h-389v75h412v-67l-234 -511h-67z" />
    <glyph glyph-name="zero" unicode="0" 
d="M106 186l267 315l20 -75l-267 -313zM250 -12q-66 0 -113.5 37t-73.5 108.5t-26 174.5q0 101 26 173.5t73.5 111.5t113.5 39t113.5 -39t73.5 -111.5t26 -173.5q0 -103 -26 -174.5t-73.5 -108.5t-113.5 -37zM250 75q36 0 60 27t36 79t12 127q0 74 -12 125.5t-36 79.5
t-60 28t-60 -28t-36 -79.5t-12 -125.5q0 -75 12 -127t36 -79t60 -27z" />
    <glyph glyph-name="one" unicode="1" 
d="M208 0v500l-113 -40l-24 75l166 88h84v-623h-113z" />
    <glyph glyph-name="two" unicode="2" 
d="M57 84q58 56 103 99.5t78.5 79t56 66.5t33.5 60.5t11 62.5q0 22 -5.5 38t-17 26.5t-28 16t-37.5 5.5t-39.5 -5t-35 -15t-30.5 -27q-9 -13 -11.5 -20.5t-1.5 -15.5l-6 -7l-7 5l-78 60q23 39 55.5 65t72 40t82.5 14q54 0 98 -22t70 -62.5t26 -95.5q0 -39 -11.5 -73.5
t-32 -67t-50.5 -66.5t-67 -71.5t-80 -81.5h197q17 0 24 2t13 8h9v-10v-92h-391v84z" />
    <glyph glyph-name="three" unicode="3" 
d="M235 -12q-55 0 -107 18.5t-84 56.5l57 83l6 8l8 -5q2 -8 4.5 -16t14.5 -20q18 -16 42.5 -25.5t53.5 -9.5q32 0 54 12.5t33.5 35t11.5 51.5q0 31 -10.5 52.5t-31 33.5t-51 16t-71.5 -1v88q44 -1 73 6t46 20t24 30.5t7 36.5t-6 33.5t-16.5 25t-26 16t-34.5 5.5
q-20 0 -39.5 -5t-37 -15.5t-32.5 -27.5l-65 66q36 40 83.5 57.5t94.5 17.5q55 0 97.5 -21t66.5 -57t24 -83q0 -34 -13.5 -62t-36 -47.5t-47.5 -30.5q29 -10 55.5 -30t43 -51.5t16.5 -76.5q0 -51 -25 -93t-71 -67t-111 -25v0z" />
    <glyph glyph-name="four" unicode="4" 
d="M284 0v148h-244v74l270 401h84v-384h82v-92h-82v-147h-110zM154 237h133v208z" />
    <glyph glyph-name="five" unicode="5" 
d="M252 -12q-65 0 -117.5 25t-80.5 74l79 65l8 6l5 -7q0 -8 3 -15t13 -20q18 -18 40 -27t49 -9q22 0 41 8.5t32.5 24.5t21.5 38t8 47q0 28 -7.5 50.5t-21 39t-33 25.5t-44.5 9q-19 0 -38 -5.5t-34.5 -16t-28.5 -27.5l-69 18l23 332h333v-91h-239l-9 -141q12 6 27 11.5t31 8
t30 2.5q42 0 76 -13.5t59 -40t38.5 -65.5t13.5 -88q0 -67 -27.5 -116t-74 -75.5t-107.5 -26.5v0z" />
    <glyph glyph-name="six" unicode="6" 
d="M260 -11q-67 0 -114 37t-71 103.5t-24 156.5q0 110 30.5 187.5t83 118.5t120.5 41q41 0 83.5 -14.5t74.5 -46.5l-62 -69l-6 -8l-8 6q-1 8 -6 13.5t-18 14.5q-7 4 -15 6t-16 3t-17 1q-15 0 -32 -4t-33.5 -15t-31 -31.5t-24 -53t-12.5 -80.5q13 18 32 30t40.5 18.5
t42.5 6.5q37 0 69.5 -13t56.5 -38.5t37.5 -63.5t13.5 -89q0 -62 -25 -111t-69 -77.5t-100 -28.5v0zM262 80q19 0 35 9t28 25.5t18 39.5t6 52q0 30 -7 51.5t-20 35.5t-29 21t-32 7q-15 0 -28.5 -5t-26 -14t-23 -21.5t-18.5 -27.5q-2 -38 4 -69.5t19 -55t32 -36t42 -12.5v0z
" />
    <glyph glyph-name="seven" unicode="7" 
d="M124 0q30 91 60.5 178t63.5 174t68 174h-251v97h378v-62q-28 -68 -55.5 -136.5t-52.5 -138t-48.5 -141t-45.5 -145.5h-117z" />
    <glyph glyph-name="eight" unicode="8" 
d="M250 -11q-63 0 -109.5 22.5t-72 61.5t-25.5 87q0 40 15 72t41.5 57.5t60.5 42.5q-25 16 -45 38t-31 48.5t-11 54.5q0 45 22 81t63 57.5t98 21.5q58 0 98.5 -20.5t61.5 -55.5t21 -78q0 -25 -6 -47t-17 -40.5t-26.5 -34.5t-35.5 -28q25 -13 45 -31t33.5 -39t20.5 -45t7 -51
q0 -50 -26 -89.5t-72.5 -62t-109.5 -22.5zM252 82q31 0 52 11.5t32 31.5t11 45q0 20 -8 38t-23.5 33t-36.5 27.5t-47 20.5q-17 -9 -31.5 -21.5t-24.5 -27t-15.5 -31t-5.5 -36.5q0 -26 11.5 -46.5t33.5 -32.5t52 -12zM271 363q14 10 25 22.5t18.5 26.5t11.5 29t4 30
q0 20 -9.5 35.5t-26.5 25t-41 9.5t-40 -9t-25 -24.5t-9 -34.5t7 -34.5t19.5 -28.5t29.5 -24.5t36 -22.5z" />
    <glyph glyph-name="nine" unicode="9" 
d="M224 -11q-47 0 -91 12.5t-80 43.5l58 83l5 8l8 -5q2 -8 6.5 -14.5t16.5 -17.5q17 -9 34.5 -13.5t38.5 -4.5q29 0 51.5 16t38.5 47t25 72t9 91q2 86 -9 137.5t-32.5 74.5t-56.5 23q-21 0 -38.5 -8.5t-30 -25t-19 -39.5t-6.5 -52q0 -26 7.5 -45.5t20.5 -33t30 -20.5t36 -7
q26 0 47 6t38.5 20.5t31.5 39.5l11 -97q-15 -17 -36 -30.5t-46.5 -20.5t-54.5 -7q-40 0 -75 13.5t-61 40t-40.5 63t-14.5 81.5q0 46 16 84.5t43.5 67t65 44.5t79.5 16q66 0 110 -33.5t66.5 -98t22.5 -157.5q0 -115 -26.5 -193.5t-76.5 -119t-122 -41.5v0z" />
    <glyph glyph-name="zero.zero" 
d="M251 249q-29 0 -48.5 19.5t-19.5 46.5q0 28 20 47.5t48 19.5q27 0 47 -19.5t20 -47.5q0 -27 -19.5 -46.5t-47.5 -19.5zM250 -12q-66 0 -113.5 37t-73.5 108.5t-26 174.5q0 101 26 173.5t73.5 111.5t113.5 39t113.5 -39t73.5 -111.5t26 -173.5q0 -103 -26 -174.5
t-73.5 -108.5t-113.5 -37zM250 75q36 0 60 27t36 79t12 127q0 74 -12 125.5t-36 79.5t-60 28t-60 -28t-36 -79.5t-12 -125.5q0 -75 12 -127t36 -79t60 -27z" />
    <glyph glyph-name="zero.ss02" 
d="M250 -12q-66 0 -113.5 37t-73.5 108.5t-26 174.5q0 101 26 173.5t73.5 111.5t113.5 39t113.5 -39t73.5 -111.5t26 -173.5q0 -103 -26 -174.5t-73.5 -108.5t-113.5 -37zM250 75q36 0 60 27t36 79t12 127q0 74 -12 125.5t-36 79.5t-60 28t-60 -28t-36 -79.5t-12 -125.5
q0 -75 12 -127t36 -79t60 -27z" />
    <glyph glyph-name="uni2080" unicode="&#x2080;" 
d="M151 110l182 189l14 -52l-182 -189zM250 -19q-45 0 -78 23t-51 67.5t-18 107.5t18 108t51 69t78 24t78 -24t51 -69t18 -108t-18 -107.5t-51 -67.5t-78 -23zM250 41q37 0 55 36t18 102q0 43 -7.5 74t-24 47.5t-41.5 16.5q-24 0 -40.5 -16.5t-24.5 -47.5t-8 -74
q0 -66 18.5 -102t54.5 -36z" />
    <glyph glyph-name="uni2081" unicode="&#x2081;" 
d="M219 -17v302l-75 -25l-18 54l113 55h61v-386h-81z" />
    <glyph glyph-name="uni2082" unicode="&#x2082;" 
d="M117 44q49 44 85.5 75t60 55.5t35 46t11.5 45.5q0 16 -6.5 26t-19.5 15.5t-33 5.5q-17 0 -31.5 -4t-26.5 -11q-11 -12 -14.5 -19t-3.5 -15l-7 -6l-6 6l-54 42q23 36 60.5 54.5t83.5 18.5q37 0 67.5 -13.5t48.5 -38.5t18 -60q0 -29 -10.5 -54t-30 -49.5t-48 -51.5
t-64.5 -60h108q17 0 24 2t13 7h9v-9v-65h-269v57z" />
    <glyph glyph-name="uni2083" unicode="&#x2083;" 
d="M240 -33q-40 0 -75.5 11.5t-57.5 35.5l40 56l6 8l8 -6q1 -8 5.5 -14t17.5 -17q11 -5 24 -8t28 -3q32 0 49 15t17 40q0 24 -12 37.5t-37 18.5t-62 1v63q30 -1 49.5 2.5t31 10.5t16 16.5t4.5 20.5q0 14 -6.5 24.5t-18.5 16t-30 5.5q-21 0 -40.5 -7t-34.5 -23l-46 47
q24 27 57.5 37.5t66.5 10.5q56 0 93.5 -28t37.5 -72q0 -32 -19.5 -54.5t-44.5 -31.5q19 -6 36 -18.5t28 -32t11 -47.5q0 -33 -17 -59t-48.5 -41t-76.5 -15v0z" />
    <glyph glyph-name="uni2084" unicode="&#x2084;" 
d="M271 -12v89h-166v51l184 246h59v-232h56v-66h-56v-88h-77zM189 140h84v115z" />
    <glyph glyph-name="uni2085" unicode="&#x2085;" 
d="M252 -19q-46 0 -82 15t-55 46l55 45l7 7l6 -7q0 -8 4.5 -14t16.5 -17q10 -5 22 -8t25 -3q20 0 35.5 8.5t24 23.5t8.5 33q0 21 -8 37t-24 25t-38 9q-13 0 -25.5 -3t-23.5 -9.5t-19 -16.5l-49 14l15 208h230v-63h-163l-5 -80q12 7 29 11t31 4q28 0 51.5 -8t40 -24.5
t25.5 -40.5t9 -56q0 -42 -18 -72.5t-50.5 -47t-74.5 -16.5v0z" />
    <glyph glyph-name="uni2086" unicode="&#x2086;" 
d="M256 -19q-69 0 -106 51t-37 133q0 68 20.5 116.5t57 74t82.5 25.5q28 0 58 -8.5t52 -30.5l-41 -48l-7 -7l-7 6q-1 8 -7.5 11t-21.5 9q-4 1 -8.5 1.5t-9.5 0.5q-13 0 -27.5 -3.5t-27.5 -14.5t-22 -30.5t-12 -52.5q10 10 22 16.5t26.5 10t28.5 3.5q35 0 62 -13.5t43 -41.5
t16 -71q0 -39 -17 -70t-47 -49t-70 -18v0zM258 45q17 0 30 9.5t20.5 25.5t7.5 37q0 17 -5 29t-13.5 20t-19 12t-21.5 4q-13 0 -24.5 -4.5t-21.5 -13t-18 -20.5q0 -32 7.5 -54t22.5 -33.5t35 -11.5v0z" />
    <glyph glyph-name="uni2087" unicode="&#x2087;" 
d="M163 -12q20 56 41 108.5t43.5 104.5t45.5 105h-171v68h262v-44q-26 -56 -50.5 -111.5t-47 -112.5t-42.5 -118h-81z" />
    <glyph glyph-name="uni2088" unicode="&#x2088;" 
d="M250 -19q-65 0 -104 30t-39 77q0 26 9.5 45.5t26.5 35t40 26.5q-17 10 -29.5 23t-19.5 29t-7 33q0 42 34.5 71.5t92.5 29.5q60 0 92.5 -28t32.5 -69q0 -21 -6 -38.5t-17.5 -31t-28.5 -23.5q21 -10 36 -25.5t23 -34t8 -40.5q0 -32 -18 -57t-50.5 -39t-75.5 -14zM251 46
q21 0 35 6.5t21.5 17.5t7.5 25q0 17 -10 30t-27.5 23t-41.5 16q-15 -8 -26.5 -17.5t-17.5 -21.5t-6 -28q0 -15 8 -26.5t22.5 -18t34.5 -6.5zM264 215q13 8 21.5 18t13 21t4.5 22q0 12 -6 21t-17.5 14t-27.5 5q-15 0 -26.5 -5t-17 -13.5t-5.5 -19.5q0 -13 8.5 -25t22 -21
t30.5 -17z" />
    <glyph glyph-name="uni2089" unicode="&#x2089;" 
d="M232 -19q-32 0 -63 7.5t-56 26.5l41 60l5 8l8 -6q2 -7 7.5 -12.5t19.5 -13.5q8 -3 16.5 -4.5t18.5 -1.5q25 0 43.5 15.5t29 45.5t10.5 71q1 53 -6 83.5t-21.5 44t-37.5 13.5q-19 0 -33 -9t-22 -25.5t-8 -39.5q1 -19 9.5 -32.5t22.5 -20t31 -6.5t31 3.5t26 12t21 23.5
l9 -67q-15 -16 -39.5 -25.5t-54.5 -9.5q-36 0 -66 15t-47.5 43.5t-17.5 67.5q0 38 19 68t51 47t71 17q69 0 102.5 -45.5t33.5 -136.5q0 -105 -39.5 -161t-114.5 -56v0z" />
    <glyph glyph-name="zero.dnom" 
d="M151 110l182 189l14 -52l-182 -189zM250 -19q-45 0 -78 23t-51 67.5t-18 107.5t18 108t51 69t78 24t78 -24t51 -69t18 -108t-18 -107.5t-51 -67.5t-78 -23zM250 41q37 0 55 36t18 102q0 43 -7.5 74t-24 47.5t-41.5 16.5q-24 0 -40.5 -16.5t-24.5 -47.5t-8 -74
q0 -66 18.5 -102t54.5 -36z" />
    <glyph glyph-name="one.dnom" 
d="M219 -17v302l-75 -25l-18 54l113 55h61v-386h-81z" />
    <glyph glyph-name="two.dnom" 
d="M117 44q49 44 85.5 75t60 55.5t35 46t11.5 45.5q0 16 -6.5 26t-19.5 15.5t-33 5.5q-17 0 -31.5 -4t-26.5 -11q-11 -12 -14.5 -19t-3.5 -15l-7 -6l-6 6l-54 42q23 36 60.5 54.5t83.5 18.5q37 0 67.5 -13.5t48.5 -38.5t18 -60q0 -29 -10.5 -54t-30 -49.5t-48 -51.5
t-64.5 -60h108q17 0 24 2t13 7h9v-9v-65h-269v57z" />
    <glyph glyph-name="three.dnom" 
d="M240 -41q-40 0 -75.5 11.5t-57.5 35.5l40 56l6 8l8 -6q1 -8 5.5 -14t17.5 -17q11 -5 24 -8t28 -3q32 0 49 15t17 40q0 24 -12 37.5t-37 18.5t-62 1v63q30 -1 49.5 2.5t31 10.5t16 16.5t4.5 20.5q0 14 -6.5 24.5t-18.5 16t-30 5.5q-21 0 -40.5 -7t-34.5 -23l-46 47
q24 27 57.5 37.5t66.5 10.5q56 0 93.5 -28t37.5 -72q0 -32 -19.5 -54.5t-44.5 -31.5q19 -6 36 -18.5t28 -32t11 -47.5q0 -33 -17 -59t-48.5 -41t-76.5 -15v0z" />
    <glyph glyph-name="four.dnom" 
d="M271 -12v89h-166v51l184 246h59v-232h56v-66h-56v-88h-77zM189 140h84v115z" />
    <glyph glyph-name="five.dnom" 
d="M252 -19q-46 0 -82 15t-55 46l55 45l7 7l6 -7q0 -8 4.5 -14t16.5 -17q10 -5 22 -8t25 -3q20 0 35.5 8.5t24 23.5t8.5 33q0 21 -8 37t-24 25t-38 9q-13 0 -25.5 -3t-23.5 -9.5t-19 -16.5l-49 14l15 208h230v-63h-163l-5 -80q12 7 29 11t31 4q28 0 51.5 -8t40 -24.5
t25.5 -40.5t9 -56q0 -42 -18 -72.5t-50.5 -47t-74.5 -16.5v0z" />
    <glyph glyph-name="six.dnom" 
d="M256 -19q-69 0 -106 51t-37 133q0 68 20.5 116.5t57 74t82.5 25.5q28 0 58 -8.5t52 -30.5l-41 -48l-7 -7l-7 6q-1 8 -7.5 11t-21.5 9q-4 1 -8.5 1.5t-9.5 0.5q-13 0 -27.5 -3.5t-27.5 -14.5t-22 -30.5t-12 -52.5q10 10 22 16.5t26.5 10t28.5 3.5q35 0 62 -13.5t43 -41.5
t16 -71q0 -39 -17 -70t-47 -49t-70 -18v0zM258 45q17 0 30 9.5t20.5 25.5t7.5 37q0 17 -5 29t-13.5 20t-19 12t-21.5 4q-13 0 -24.5 -4.5t-21.5 -13t-18 -20.5q0 -32 7.5 -54t22.5 -33.5t35 -11.5v0z" />
    <glyph glyph-name="seven.dnom" 
d="M163 -12q20 56 41 108.5t43.5 104.5t45.5 105h-171v68h262v-44q-26 -56 -50.5 -111.5t-47 -112.5t-42.5 -118h-81z" />
    <glyph glyph-name="eight.dnom" 
d="M250 -19q-65 0 -104 30t-39 77q0 26 9.5 45.5t26.5 35t40 26.5q-17 10 -29.5 23t-19.5 29t-7 33q0 42 34.5 71.5t92.5 29.5q60 0 92.5 -28t32.5 -69q0 -21 -6 -38.5t-17.5 -31t-28.5 -23.5q21 -10 36 -25.5t23 -34t8 -40.5q0 -32 -18 -57t-50.5 -39t-75.5 -14zM251 46
q21 0 35 6.5t21.5 17.5t7.5 25q0 17 -10 30t-27.5 23t-41.5 16q-15 -8 -26.5 -17.5t-17.5 -21.5t-6 -28q0 -15 8 -26.5t22.5 -18t34.5 -6.5zM264 215q13 8 21.5 18t13 21t4.5 22q0 12 -6 21t-17.5 14t-27.5 5q-15 0 -26.5 -5t-17 -13.5t-5.5 -19.5q0 -13 8.5 -25t22 -21
t30.5 -17z" />
    <glyph glyph-name="nine.dnom" 
d="M232 -19q-32 0 -63 7.5t-56 26.5l41 60l5 8l8 -6q2 -7 7.5 -12.5t19.5 -13.5q8 -3 16.5 -4.5t18.5 -1.5q25 0 43.5 15.5t29 45.5t10.5 71q1 53 -6 83.5t-21.5 44t-37.5 13.5q-19 0 -33 -9t-22 -25.5t-8 -39.5q1 -19 9.5 -32.5t22.5 -20t31 -6.5t31 3.5t26 12t21 23.5
l9 -67q-15 -16 -39.5 -25.5t-54.5 -9.5q-36 0 -66 15t-47.5 43.5t-17.5 67.5q0 38 19 68t51 47t71 17q69 0 102.5 -45.5t33.5 -136.5q0 -105 -39.5 -161t-114.5 -56v0z" />
    <glyph glyph-name="zero.numr" 
d="M151 368l182 189l14 -52l-182 -189zM250 239q-45 0 -78 23t-51 67.5t-18 107.5t18 108t51 69t78 24t78 -24t51 -69t18 -108t-18 -107.5t-51 -67.5t-78 -23zM250 299q37 0 55 36t18 102q0 43 -7.5 74t-24 47.5t-41.5 16.5q-24 0 -40.5 -16.5t-24.5 -47.5t-8 -74
q0 -66 18.5 -102t54.5 -36z" />
    <glyph glyph-name="one.numr" 
d="M219 246v302l-75 -25l-18 54l113 55h61v-386h-81z" />
    <glyph glyph-name="two.numr" 
d="M117 303q49 44 85.5 75t60 55.5t35 46t11.5 45.5q0 16 -6.5 26t-19.5 15.5t-33 5.5q-17 0 -31.5 -4t-26.5 -11q-11 -12 -14.5 -19t-3.5 -15l-7 -6l-6 6l-54 42q23 36 60.5 54.5t83.5 18.5q37 0 67.5 -13.5t48.5 -38.5t18 -60q0 -29 -10.5 -54t-30 -49.5t-48 -51.5
t-64.5 -60h108q17 0 24 2t13 7h9v-9v-65h-269v57z" />
    <glyph glyph-name="three.numr" 
d="M240 239q-40 0 -75.5 11.5t-57.5 35.5l40 56l6 8l8 -6q1 -8 5.5 -14t17.5 -17q11 -5 24 -8t28 -3q32 0 49 15t17 40q0 24 -12 37.5t-37 18.5t-62 1v63q30 -1 49.5 2.5t31 10.5t16 16.5t4.5 20.5q0 14 -6.5 24.5t-18.5 16t-30 5.5q-21 0 -40.5 -7t-34.5 -23l-46 47
q24 27 57.5 37.5t66.5 10.5q56 0 93.5 -28t37.5 -72q0 -32 -19.5 -54.5t-44.5 -31.5q19 -6 36 -18.5t28 -32t11 -47.5q0 -33 -17 -59t-48.5 -41t-76.5 -15v0z" />
    <glyph glyph-name="four.numr" 
d="M271 246v89h-166v51l184 246h59v-232h56v-66h-56v-88h-77zM189 398h84v115z" />
    <glyph glyph-name="five.numr" 
d="M252 239q-46 0 -82 15t-55 46l55 45l7 7l6 -7q0 -8 4.5 -14t16.5 -17q10 -5 22 -8t25 -3q20 0 35.5 8.5t24 23.5t8.5 33q0 21 -8 37t-24 25t-38 9q-13 0 -25.5 -3t-23.5 -9.5t-19 -16.5l-49 14l15 208h230v-63h-163l-5 -80q12 7 29 11t31 4q28 0 51.5 -8t40 -24.5
t25.5 -40.5t9 -56q0 -42 -18 -72.5t-50.5 -47t-74.5 -16.5v0z" />
    <glyph glyph-name="six.numr" 
d="M256 239q-69 0 -106 51t-37 133q0 68 20.5 116.5t57 74t82.5 25.5q28 0 58 -8.5t52 -30.5l-41 -48l-7 -7l-7 6q-1 8 -7.5 11t-21.5 9q-4 1 -8.5 1.5t-9.5 0.5q-13 0 -27.5 -3.5t-27.5 -14.5t-22 -30.5t-12 -52.5q10 10 22 16.5t26.5 10t28.5 3.5q35 0 62 -13.5t43 -41.5
t16 -71q0 -39 -17 -70t-47 -49t-70 -18v0zM258 303q17 0 30 9.5t20.5 25.5t7.5 37q0 17 -5 29t-13.5 20t-19 12t-21.5 4q-13 0 -24.5 -4.5t-21.5 -13t-18 -20.5q0 -32 7.5 -54t22.5 -33.5t35 -11.5v0z" />
    <glyph glyph-name="seven.numr" 
d="M163 246q20 56 41 108.5t43.5 104.5t45.5 105h-171v68h262v-44q-26 -56 -50.5 -111.5t-47 -112.5t-42.5 -118h-81z" />
    </font>
</defs>
</svg>
